  0
SECTION
  2
HEADER
  9
$ACADVER
  1
AC1015
  9
$ACADMAINTVER
 70
     6
  9
$DWGCODEPAGE
  3
ANSI_1252
  9
$INSBASE
 10
0.0
 20
0.0
 30
0.0
  9
$EXTMIN
 10
0.0
 20
0.0
 30
0.0
  9
$EXTMAX
 10
594.0000000000005
 20
420.0000000000002
 30
0.0
  9
$LIMMIN
 10
0.0
 20
0.0
  9
$LIMMAX
 10
12.0
 20
9.0
  9
$ORTHOMODE
 70
     0
  9
$REGENMODE
 70
     1
  9
$FILLMODE
 70
     1
  9
$QTEXTMODE
 70
     0
  9
$MIRRTEXT
 70
     1
  9
$LTSCALE
 40
1.0
  9
$ATTMODE
 70
     1
  9
$TEXTSIZE
 40
0.2
  9
$TRACEWID
 40
0.05
  9
$TEXTSTYLE
  7
Standard
  9
$CLAYER
  8
0
  9
$CELTYPE
  6
ByLayer
  9
$CECOLOR
 62
   256
  9
$CELTSCALE
 40
1.0
  9
$DISPSILH
 70
     0
  9
$DIMSCALE
 40
1.0
  9
$DIMASZ
 40
0.18
  9
$DIMEXO
 40
0.0625
  9
$DIMDLI
 40
0.38
  9
$DIMRND
 40
0.0
  9
$DIMDLE
 40
0.0
  9
$DIMEXE
 40
0.18
  9
$DIMTP
 40
0.0
  9
$DIMTM
 40
0.0
  9
$DIMTXT
 40
0.18
  9
$DIMCEN
 40
0.09
  9
$DIMTSZ
 40
0.0
  9
$DIMTOL
 70
     0
  9
$DIMLIM
 70
     0
  9
$DIMTIH
 70
     1
  9
$DIMTOH
 70
     1
  9
$DIMSE1
 70
     0
  9
$DIMSE2
 70
     0
  9
$DIMTAD
 70
     0
  9
$DIMZIN
 70
     0
  9
$DIMBLK
  1

  9
$DIMASO
 70
     1
  9
$DIMSHO
 70
     1
  9
$DIMPOST
  1

  9
$DIMAPOST
  1

  9
$DIMALT
 70
     0
  9
$DIMALTD
 70
     2
  9
$DIMALTF
 40
25.4
  9
$DIMLFAC
 40
1.0
  9
$DIMTOFL
 70
     0
  9
$DIMTVP
 40
0.0
  9
$DIMTIX
 70
     0
  9
$DIMSOXD
 70
     0
  9
$DIMSAH
 70
     0
  9
$DIMBLK1
  1

  9
$DIMBLK2
  1

  9
$DIMSTYLE
  2
Standard
  9
$DIMCLRD
 70
     0
  9
$DIMCLRE
 70
     0
  9
$DIMCLRT
 70
     0
  9
$DIMTFAC
 40
1.0
  9
$DIMGAP
 40
0.09
  9
$DIMJUST
 70
     0
  9
$DIMSD1
 70
     0
  9
$DIMSD2
 70
     0
  9
$DIMTOLJ
 70
     1
  9
$DIMTZIN
 70
     0
  9
$DIMALTZ
 70
     0
  9
$DIMALTTZ
 70
     0
  9
$DIMUPT
 70
     0
  9
$DIMDEC
 70
     4
  9
$DIMTDEC
 70
     4
  9
$DIMALTU
 70
     2
  9
$DIMALTTD
 70
     2
  9
$DIMTXSTY
  7
Standard
  9
$DIMAUNIT
 70
     0
  9
$DIMADEC
 70
     0
  9
$DIMALTRND
 40
0.0
  9
$DIMAZIN
 70
     0
  9
$DIMDSEP
 70
    46
  9
$DIMATFIT
 70
     3
  9
$DIMFRAC
 70
     0
  9
$DIMLDRBLK
  1

  9
$DIMLUNIT
 70
     2
  9
$DIMLWD
 70
    -2
  9
$DIMLWE
 70
    -2
  9
$DIMTMOVE
 70
     0
  9
$LUNITS
 70
     2
  9
$LUPREC
 70
     4
  9
$SKETCHINC
 40
0.1
  9
$FILLETRAD
 40
0.5
  9
$AUNITS
 70
     0
  9
$AUPREC
 70
     0
  9
$MENU
  1
.
  9
$ELEVATION
 40
0.0
  9
$PELEVATION
 40
0.0
  9
$THICKNESS
 40
0.0
  9
$LIMCHECK
 70
     0
  9
$CHAMFERA
 40
0.5
  9
$CHAMFERB
 40
0.5
  9
$CHAMFERC
 40
1.0
  9
$CHAMFERD
 40
0.0
  9
$SKPOLY
 70
     0
  9
$TDCREATE
 40
2456997.611442639
  9
$TDUCREATE
 40
2456997.569775972
  9
$TDUPDATE
 40
2456997.611443009
  9
$TDUUPDATE
 40
2456997.569776343
  9
$TDINDWG
 40
0.0000000116
  9
$TDUSRTIMER
 40
0.0000000116
  9
$USRTIMER
 70
     1
  9
$ANGBASE
 50
0.0
  9
$ANGDIR
 70
     0
  9
$PDMODE
 70
     0
  9
$PDSIZE
 40
0.0
  9
$PLINEWID
 40
0.0
  9
$SPLFRAME
 70
     0
  9
$SPLINETYPE
 70
     6
  9
$SPLINESEGS
 70
     8
  9
$HANDSEED
  5
613
  9
$SURFTAB1
 70
     6
  9
$SURFTAB2
 70
     6
  9
$SURFTYPE
 70
     6
  9
$SURFU
 70
     6
  9
$SURFV
 70
     6
  9
$UCSBASE
  2

  9
$UCSNAME
  2

  9
$UCSORG
 10
0.0
 20
0.0
 30
0.0
  9
$UCSXDIR
 10
1.0
 20
0.0
 30
0.0
  9
$UCSYDIR
 10
0.0
 20
1.0
 30
0.0
  9
$UCSORTHOREF
  2

  9
$UCSORTHOVIEW
 70
     0
  9
$UCSORGTOP
 10
0.0
 20
0.0
 30
0.0
  9
$UCSORGBOTTOM
 10
0.0
 20
0.0
 30
0.0
  9
$UCSORGLEFT
 10
0.0
 20
0.0
 30
0.0
  9
$UCSORGRIGHT
 10
0.0
 20
0.0
 30
0.0
  9
$UCSORGFRONT
 10
0.0
 20
0.0
 30
0.0
  9
$UCSORGBACK
 10
0.0
 20
0.0
 30
0.0
  9
$PUCSBASE
  2

  9
$PUCSNAME
  2

  9
$PUCSORG
 10
0.0
 20
0.0
 30
0.0
  9
$PUCSXDIR
 10
1.0
 20
0.0
 30
0.0
  9
$PUCSYDIR
 10
0.0
 20
1.0
 30
0.0
  9
$PUCSORTHOREF
  2

  9
$PUCSORTHOVIEW
 70
     0
  9
$PUCSORGTOP
 10
0.0
 20
0.0
 30
0.0
  9
$PUCSORGBOTTOM
 10
0.0
 20
0.0
 30
0.0
  9
$PUCSORGLEFT
 10
0.0
 20
0.0
 30
0.0
  9
$PUCSORGRIGHT
 10
0.0
 20
0.0
 30
0.0
  9
$PUCSORGFRONT
 10
0.0
 20
0.0
 30
0.0
  9
$PUCSORGBACK
 10
0.0
 20
0.0
 30
0.0
  9
$USERI1
 70
     0
  9
$USERI2
 70
     0
  9
$USERI3
 70
     0
  9
$USERI4
 70
     0
  9
$USERI5
 70
     0
  9
$USERR1
 40
18.1
  9
$USERR2
 40
0.0
  9
$USERR3
 40
0.0
  9
$USERR4
 40
0.0
  9
$USERR5
 40
0.0
  9
$WORLDVIEW
 70
     1
  9
$SHADEDGE
 70
     3
  9
$SHADEDIF
 70
    70
  9
$TILEMODE
 70
     1
  9
$MAXACTVP
 70
    64
  9
$PINSBASE
 10
0.0
 20
0.0
 30
0.0
  9
$PLIMCHECK
 70
     0
  9
$PEXTMIN
 10
1.00000000000000E+20
 20
1.00000000000000E+20
 30
1.00000000000000E+20
  9
$PEXTMAX
 10
-1.00000000000000E+20
 20
-1.00000000000000E+20
 30
-1.00000000000000E+20
  9
$PLIMMIN
 10
0.0
 20
0.0
  9
$PLIMMAX
 10
12.0
 20
9.0
  9
$UNITMODE
 70
     0
  9
$VISRETAIN
 70
     1
  9
$PLINEGEN
 70
     0
  9
$PSLTSCALE
 70
     1
  9
$TREEDEPTH
 70
  3020
  9
$CMLSTYLE
  2
Standard
  9
$CMLJUST
 70
     0
  9
$CMLSCALE
 40
1.0
  9
$PROXYGRAPHICS
 70
     1
  9
$MEASUREMENT
 70
     1
  9
$CELWEIGHT
370
    -1
  9
$ENDCAPS
280
     0
  9
$JOINSTYLE
280
     0
  9
$LWDISPLAY
290
     0
  9
$INSUNITS
 70
     4
  9
$HYPERLINKBASE
  1

  9
$STYLESHEET
  1

  9
$XEDIT
290
     1
  9
$CEPSNTYPE
380
     0
  9
$PSTYLEMODE
290
     1
  9
$FINGERPRINTGUID
  2
{AEE1DD39-F917-4122-AF87-6A3B23BAEDA0}
  9
$VERSIONGUID
  2
{FAEB1C32-E019-11D5-929B-00C0DF256EC4}
  9
$EXTNAMES
290
     1
  9
$PSVPSCALE
 40
0.0
  9
$OLESTARTUP
290
     0
  0
ENDSEC
  0
SECTION
  2
CLASSES
  0
CLASS
  1
ACDBDICTIONARYWDFLT
  2
AcDbDictionaryWithDefault
  3
ObjectDBX Classes
 90
        0
280
     0
281
     0
  0
CLASS
  1
VISUALSTYLE
  2
AcDbVisualStyle
  3
ObjectDBX Classes
 90
     4095
280
     0
281
     0
  0
CLASS
  1
MATERIAL
  2
AcDbMaterial
  3
ObjectDBX Classes
 90
     1153
280
     0
281
     0
  0
CLASS
  1
DICTIONARYVAR
  2
AcDbDictionaryVar
  3
ObjectDBX Classes
 90
        0
280
     0
281
     0
  0
CLASS
  1
ACDBPLACEHOLDER
  2
AcDbPlaceHolder
  3
ObjectDBX Classes
 90
        0
280
     0
281
     0
  0
CLASS
  1
LAYOUT
  2
AcDbLayout
  3
ObjectDBX Classes
 90
        0
280
     0
281
     0
  0
ENDSEC
  0
SECTION
  2
TABLES
  0
TABLE
  2
VPORT
  5
8
330
0
100
AcDbSymbolTable
 70
     1
  0
VPORT
  5
29
330
8
100
AcDbSymbolTableRecord
100
AcDbViewportTableRecord
  2
*Active
 70
     0
 10
0.0
 20
0.0
 11
1.0
 21
1.0
 12
297.0000000000002
 22
210.0000000000001
 13
0.0
 23
0.0
 14
0.5
 24
0.5
 15
0.5
 25
0.5
 16
0.0
 26
0.0
 36
1.0
 17
0.0
 27
0.0
 37
0.0
 40
462.0000000000003
 41
1.60267857142857
 42
50.0
 43
0.0
 44
0.0
 50
0.0
 51
0.0
 71
     0
 72
   100
 73
     1
 74
     3
 75
     0
 76
     0
 77
     0
 78
     0
281
     0
 65
     1
110
0.0
120
0.0
130
0.0
111
1.0
121
0.0
131
0.0
112
0.0
122
1.0
132
0.0
 79
     0
146
0.0
  0
ENDTAB
  0
TABLE
  2
LTYPE
  5
5
330
0
100
AcDbSymbolTable
 70
    10
  0
LTYPE
  5
14
330
5
100
AcDbSymbolTableRecord
100
AcDbLinetypeTableRecord
  2
ByBlock
 70
     0
  3

 72
    65
 73
     0
 40
0.0
  0
LTYPE
  5
15
330
5
100
AcDbSymbolTableRecord
100
AcDbLinetypeTableRecord
  2
ByLayer
 70
     0
  3

 72
    65
 73
     0
 40
0.0
  0
LTYPE
  5
16
330
5
100
AcDbSymbolTableRecord
100
AcDbLinetypeTableRecord
  2
Continuous
 70
     0
  3
Solid line
 72
    65
 73
     0
 40
0.0
  0
LTYPE
  5
3F
330
5
100
AcDbSymbolTableRecord
100
AcDbLinetypeTableRecord
  2
DASHED
 70
     0
  3
Dashed
 72
    65
 73
     2
 40
15.0
 49
7.0
 74
     0
 49
-8.0
 74
     0
  0
LTYPE
  5
40
330
5
100
AcDbSymbolTableRecord
100
AcDbLinetypeTableRecord
  2
DOTTED
 70
     0
  3
Dotted
 72
    65
 73
     2
 40
1.0
 49
0.0
 74
     0
 49
-1.0
 74
     0
  0
LTYPE
  5
41
330
5
100
AcDbSymbolTableRecord
100
AcDbLinetypeTableRecord
  2
DOT_CENTER
 70
     0
  3
Dot_Center
 72
    65
 73
     4
 40
14.0
 49
12.0
 74
     0
 49
-1.0
 74
     0
 49
0.0
 74
     0
 49
-1.0
 74
     0
  0
LTYPE
  5
42
330
5
100
AcDbSymbolTableRecord
100
AcDbLinetypeTableRecord
  2
LONG_DASHED
 70
     0
  3
Long_Dashed
 72
    65
 73
     2
 40
15.0
 49
10.0
 74
     0
 49
-5.0
 74
     0
  0
LTYPE
  5
43
330
5
100
AcDbSymbolTableRecord
100
AcDbLinetypeTableRecord
  2
DASH_CENTER
 70
     0
  3
Dash_Center
 72
    65
 73
     4
 40
14.0
 49
11.0
 74
     0
 49
-1.0
 74
     0
 49
1.0
 74
     0
 49
-1.0
 74
     0
  0
LTYPE
  5
44
330
5
100
AcDbSymbolTableRecord
100
AcDbLinetypeTableRecord
  2
PHANTOM
 70
     0
  3
Phantom
 72
    65
 73
     6
 40
13.0
 49
10.0
 74
     0
 49
-1.0
 74
     0
 49
0.0
 74
     0
 49
-1.0
 74
     0
 49
0.0
 74
     0
 49
-1.0
 74
     0
  0
LTYPE
  5
45
330
5
100
AcDbSymbolTableRecord
100
AcDbLinetypeTableRecord
  2
CENTER_DASH_DASH
 70
     0
  3
Center_Dash_Dash
 72
    65
 73
     6
 40
14.0
 49
9.0
 74
     0
 49
-1.0
 74
     0
 49
1.0
 74
     0
 49
-1.0
 74
     0
 49
1.0
 74
     0
 49
-1.0
 74
     0
  0
LTYPE
  5
46
330
5
100
AcDbSymbolTableRecord
100
AcDbLinetypeTableRecord
  2
CHAIN
 70
     0
  3
CHAIN
 72
    65
 73
     4
 40
4.0
 49
1.0
 74
     0
 49
-1.0
 74
     0
 49
1.0
 74
     0
 49
-1.0
 74
     0
  0
LTYPE
  5
47
330
5
100
AcDbSymbolTableRecord
100
AcDbLinetypeTableRecord
  2
DASHED_SPACE
 70
     0
  3
DASHED_SPACE
 72
    65
 73
     2
 40
2.0
 49
1.0
 74
     0
 49
-1.0
 74
     0
  0
ENDTAB
  0
TABLE
  2
LAYER
  5
2
330
0
100
AcDbSymbolTable
 70
     8
  0
LAYER
  5
10
330
2
100
AcDbSymbolTableRecord
100
AcDbLayerTableRecord
  2
0
 70
     0
 62
     7
  6
Continuous
370
    -3
390
F
  0
LAYER
  5
48
330
2
100
AcDbSymbolTableRecord
100
AcDbLayerTableRecord
  2
1
 70
     0
 62
     7
  6
Continuous
370
    -3
390
F
  0
LAYER
  5
49
330
2
100
AcDbSymbolTableRecord
100
AcDbLayerTableRecord
  2
Bemaßungen_TC_020513_DIN_
 70
     0
 62
     7
  6
Continuous
370
    -3
390
F
  0
LAYER
  5
4A
330
2
100
AcDbSymbolTableRecord
100
AcDbLayerTableRecord
  2
Mittellinie_TC_020513_DIN_
 70
     0
 62
     7
  6
Continuous
370
    -3
390
F
  0
LAYER
  5
4B
330
2
100
AcDbSymbolTableRecord
100
AcDbLayerTableRecord
  2
Mittelpunktmarkierung_TC_020513_DIN_
 70
     0
 62
     7
  6
Continuous
370
    -3
390
F
  0
LAYER
  5
4C
330
2
100
AcDbSymbolTableRecord
100
AcDbLayerTableRecord
  2
Sichtbare_Kanten_TC_020513_DIN_
 70
     0
 62
     7
  6
Continuous
370
    -3
390
F
  0
LAYER
  5
4D
330
2
100
AcDbSymbolTableRecord
100
AcDbLayerTableRecord
  2
Stich_1-Linien_TC_020513_DIN_
 70
     0
 62
     7
  6
Continuous
370
    -3
390
F
  0
LAYER
  5
4E
330
2
100
AcDbSymbolTableRecord
100
AcDbLayerTableRecord
  2
Symbole_TC_020513_DIN_
 70
     0
 62
     7
  6
Continuous
370
    -3
390
F
  0
ENDTAB
  0
TABLE
  2
STYLE
  5
3
330
0
100
AcDbSymbolTable
 70
     4
  0
STYLE
  5
11
330
3
100
AcDbSymbolTableRecord
100
AcDbTextStyleTableRecord
  2
Standard
 70
     0
 40
0.0
 41
1.0
 50
0.0
 71
     0
 42
0.2
  3
txt
  4

  0
STYLE
  5
A3
330
3
100
AcDbSymbolTableRecord
100
AcDbTextStyleTableRecord
  2
CONVERTER_11
 70
     0
 40
0.0
 41
1.2
 50
0.0
 71
     0
 42
0.2
  3
ARIAL.TTF
  4

  0
STYLE
  5
A8
330
3
100
AcDbSymbolTableRecord
100
AcDbTextStyleTableRecord
  2
CONVERTER_12
 70
     0
 40
0.0
 41
1.38
 50
0.0
 71
     0
 42
0.2
  3
ARIAL.TTF
  4

  0
STYLE
  5
57D
330
3
100
AcDbSymbolTableRecord
100
AcDbTextStyleTableRecord
  2
CONVERTER_13
 70
     0
 40
0.0
 41
0.75
 50
0.0
 71
     0
 42
0.2
  3
txt.shx
  4

  0
ENDTAB
  0
TABLE
  2
VIEW
  5
6
330
0
100
AcDbSymbolTable
 70
     0
  0
ENDTAB
  0
TABLE
  2
UCS
  5
7
330
0
100
AcDbSymbolTable
 70
     0
  0
ENDTAB
  0
TABLE
  2
APPID
  5
9
330
0
100
AcDbSymbolTable
 70
     1
  0
APPID
  5
12
330
9
100
AcDbSymbolTableRecord
100
AcDbRegAppTableRecord
  2
ACAD
 70
     0
  0
ENDTAB
  0
TABLE
  2
DIMSTYLE
  5
A
330
0
100
AcDbSymbolTable
 70
    11
100
AcDbDimStyleTable
  0
DIMSTYLE
105
27
330
A
100
AcDbSymbolTableRecord
100
AcDbDimStyleTableRecord
  2
Standard
 70
     0
178
     0
340
11
  0
DIMSTYLE
105
581
102
{ACAD_REACTORS
330
582
102
}
330
A
100
AcDbSymbolTableRecord
100
AcDbDimStyleTableRecord
  2
ME10_DIM_10
 70
     0
 41
10.0
 42
4.0
 44
8.0
 73
     0
 74
     0
 77
     1
 78
    12
140
14.0
147
1.6
172
     1
173
     1
174
     1
175
     1
176
     7
177
     7
271
     2
178
     7
271
     2
340
57D
  0
DIMSTYLE
105
58C
102
{ACAD_REACTORS
330
58D
102
}
330
A
100
AcDbSymbolTableRecord
100
AcDbDimStyleTableRecord
  2
ME10_DIM_11
 70
     0
 41
10.0
 42
4.0
 44
8.0
 73
     0
 74
     0
 77
     1
 78
    12
140
14.0
147
1.6
172
     1
173
     1
174
     1
175
     1
176
     7
177
     7
271
     2
178
     7
271
     2
340
57D
  0
DIMSTYLE
105
597
102
{ACAD_REACTORS
330
598
102
}
330
A
100
AcDbSymbolTableRecord
100
AcDbDimStyleTableRecord
  2
ME10_DIM_12
 70
     0
 41
10.0
 42
4.0
 44
8.0
 73
     0
 74
     0
 77
     1
 78
    12
140
14.0
147
1.6
172
     1
173
     1
174
     1
175
     1
176
     7
177
     7
271
     2
178
     7
271
     2
340
57D
  0
DIMSTYLE
105
5A2
102
{ACAD_REACTORS
330
5A3
102
}
330
A
100
AcDbSymbolTableRecord
100
AcDbDimStyleTableRecord
  2
ME10_DIM_13
 70
     0
 41
10.0
 42
4.0
 44
8.0
 73
     0
 74
     0
 77
     1
 78
    12
140
14.0
147
1.6
172
     1
173
     1
174
     1
175
     1
176
     7
177
     7
271
     2
178
     7
271
     2
340
57D
  0
DIMSTYLE
105
5AF
102
{ACAD_REACTORS
330
5B0
102
}
330
A
100
AcDbSymbolTableRecord
100
AcDbDimStyleTableRecord
  2
ME10_DIM_14
 70
     0
 41
10.0
 42
4.0
 44
8.0
 73
     0
 74
     0
 77
     1
 78
    12
140
14.0
147
1.6
172
     1
173
     1
174
     1
175
     1
176
     7
177
     7
271
     2
178
     7
271
     2
340
57D
  0
DIMSTYLE
105
5BA
102
{ACAD_REACTORS
330
5BB
102
}
330
A
100
AcDbSymbolTableRecord
100
AcDbDimStyleTableRecord
  2
ME10_DIM_15
 70
     0
 41
10.0
 42
4.0
 44
8.0
 73
     0
 74
     0
 77
     1
 78
    12
140
14.0
147
1.6
172
     1
173
     1
174
     1
175
     1
176
     7
177
     7
271
     2
178
     7
271
     2
340
57D
  0
DIMSTYLE
105
5C5
102
{ACAD_REACTORS
330
5C6
102
}
330
A
100
AcDbSymbolTableRecord
100
AcDbDimStyleTableRecord
  2
ME10_DIM_16
 70
     0
 41
10.0
 42
4.0
 44
8.0
 73
     0
 74
     0
 77
     1
 78
    12
140
14.0
147
1.6
172
     1
173
     1
174
     1
175
     1
176
     7
177
     7
271
     2
178
     7
271
     2
340
57D
  0
DIMSTYLE
105
5D0
102
{ACAD_REACTORS
330
5D1
102
}
330
A
100
AcDbSymbolTableRecord
100
AcDbDimStyleTableRecord
  2
ME10_DIM_17
 70
     0
 41
10.0
 42
4.0
 44
8.0
 73
     0
 74
     0
 77
     1
 78
    12
140
14.0
147
1.6
172
     1
173
     1
174
     1
175
     1
176
     7
177
     7
271
     2
178
     7
271
     2
340
57D
  0
DIMSTYLE
105
5DB
102
{ACAD_REACTORS
330
5DC
102
}
330
A
100
AcDbSymbolTableRecord
100
AcDbDimStyleTableRecord
  2
ME10_DIM_18
 70
     0
 41
10.0
 42
4.0
 44
8.0
 73
     0
 74
     0
 77
     1
 78
    12
140
14.0
147
1.6
172
     1
173
     1
174
     1
175
     1
176
     7
177
     7
271
     0
178
     7
271
     0
340
57D
  0
DIMSTYLE
105
5E6
102
{ACAD_REACTORS
330
5E7
102
}
330
A
100
AcDbSymbolTableRecord
100
AcDbDimStyleTableRecord
  2
ME10_DIM_19
 70
     0
 41
10.0
 42
4.0
 44
8.0
 73
     0
 74
     0
 77
     1
 78
    12
140
14.0
147
1.6
172
     1
173
     1
174
     1
175
     1
176
     7
177
     7
271
     2
178
     7
271
     2
340
57D
  0
ENDTAB
  0
TABLE
  2
BLOCK_RECORD
  5
1
330
0
100
AcDbSymbolTable
 70
    13
  0
BLOCK_RECORD
  5
1F
330
1
100
AcDbSymbolTableRecord
100
AcDbBlockTableRecord
  2
*Model_Space
340
22
  0
BLOCK_RECORD
  5
1B
330
1
100
AcDbSymbolTableRecord
100
AcDbBlockTableRecord
  2
*Paper_Space
340
1E
  0
BLOCK_RECORD
  5
23
330
1
100
AcDbSymbolTableRecord
100
AcDbBlockTableRecord
  2
*Paper_Space0
340
26
  0
BLOCK_RECORD
  5
4F
330
1
100
AcDbSymbolTableRecord
100
AcDbBlockTableRecord
  2
_formato_A4
340
0
102
{BLKREFS
331
53
102
}
  0
BLOCK_RECORD
  5
52
330
1
100
AcDbSymbolTableRecord
100
AcDbBlockTableRecord
  2
A4_oriz
340
0
102
{BLKREFS
331
56
102
}
  0
BLOCK_RECORD
  5
577
330
1
100
AcDbSymbolTableRecord
100
AcDbBlockTableRecord
  2
*D3
340
0
  0
BLOCK_RECORD
  5
583
330
1
100
AcDbSymbolTableRecord
100
AcDbBlockTableRecord
  2
*D4
340
0
  0
BLOCK_RECORD
  5
58E
330
1
100
AcDbSymbolTableRecord
100
AcDbBlockTableRecord
  2
*D5
340
0
  0
BLOCK_RECORD
  5
599
330
1
100
AcDbSymbolTableRecord
100
AcDbBlockTableRecord
  2
*D6
340
0
  0
BLOCK_RECORD
  5
5A4
330
1
100
AcDbSymbolTableRecord
100
AcDbBlockTableRecord
  2
*D7
340
0
  0
BLOCK_RECORD
  5
5B1
330
1
100
AcDbSymbolTableRecord
100
AcDbBlockTableRecord
  2
*D8
340
0
  0
BLOCK_RECORD
  5
5BC
330
1
100
AcDbSymbolTableRecord
100
AcDbBlockTableRecord
  2
*D9
340
0
  0
BLOCK_RECORD
  5
5C7
330
1
100
AcDbSymbolTableRecord
100
AcDbBlockTableRecord
  2
*D10
340
0
  0
BLOCK_RECORD
  5
5D2
330
1
100
AcDbSymbolTableRecord
100
AcDbBlockTableRecord
  2
*D11
340
0
  0
BLOCK_RECORD
  5
5DD
330
1
100
AcDbSymbolTableRecord
100
AcDbBlockTableRecord
  2
*D12
340
0
  0
ENDTAB
  0
ENDSEC
  0
SECTION
  2
BLOCKS
  0
BLOCK
  5
20
330
1F
100
AcDbEntity
  8
0
100
AcDbBlockBegin
  2
*Model_Space
 70
     0
 10
0.0
 20
0.0
 30
0.0
  3
*Model_Space
  1

  0
ENDBLK
  5
21
330
1F
100
AcDbEntity
  8
0
100
AcDbBlockEnd
  0
BLOCK
  5
1C
330
1B
100
AcDbEntity
 67
     1
  8
0
100
AcDbBlockBegin
  2
*Paper_Space
 70
     0
 10
0.0
 20
0.0
 30
0.0
  3
*Paper_Space
  1

  0
ENDBLK
  5
1D
330
1B
100
AcDbEntity
 67
     1
  8
0
100
AcDbBlockEnd
  0
BLOCK
  5
24
330
23
100
AcDbEntity
  8
0
100
AcDbBlockBegin
  2
*Paper_Space0
 70
     0
 10
0.0
 20
0.0
 30
0.0
  3
*Paper_Space0
  1

  0
ENDBLK
  5
25
330
23
100
AcDbEntity
  8
0
100
AcDbBlockEnd
  0
BLOCK
  5
50
330
4F
100
AcDbEntity
  8
0
100
AcDbBlockBegin
  2
_formato_A4
 70
     0
 10
795.4209563719538
 20
53.785429812977
 30
0.0
  3
_formato_A4
  1

  0
LINE
  5
57
330
4F
100
AcDbEntity
  8
1
  6
Continuous
 62
     7
100
AcDbLine
 10
606.4209563719537
 20
58.78542981297689
 30
0.0
 11
606.4209563719537
 21
93.785429812977
 31
0.0
  0
LINE
  5
58
330
4F
100
AcDbEntity
  8
1
  6
Continuous
 62
     7
100
AcDbLine
 10
606.4209563719537
 20
73.785429812977
 30
0.0
 11
790.4209563719538
 21
73.785429812977
 31
0.0
  0
LINE
  5
59
330
4F
100
AcDbEntity
  8
1
  6
Continuous
 62
     7
100
AcDbLine
 10
503.4209563719535
 20
242.785429812977
 30
0.0
 11
503.4209563719535
 21
58.785429812977
 31
0.0
  0
LINE
  5
5A
330
4F
100
AcDbEntity
  8
1
  6
Continuous
 62
     7
100
AcDbLine
 10
631.4209563719538
 20
88.785429812977
 30
0.0
 11
631.4209563719538
 21
93.785429812977
 31
0.0
  0
LINE
  5
5B
330
4F
100
AcDbEntity
  8
1
  6
Continuous
 62
     7
100
AcDbLine
 10
613.4209563719537
 20
88.785429812977
 30
0.0
 11
613.4209563719537
 21
93.785429812977
 31
0.0
  0
LINE
  5
5C
330
4F
100
AcDbEntity
  8
1
  6
Continuous
 62
     7
100
AcDbLine
 10
606.4209563719537
 20
93.785429812977
 30
0.0
 11
790.4209563719538
 21
93.785429812977
 31
0.0
  0
LINE
  5
5D
330
4F
100
AcDbEntity
  8
1
  6
Continuous
 62
     7
100
AcDbLine
 10
631.4209563719538
 20
83.785429812977
 30
0.0
 11
631.4209563719538
 21
88.785429812977
 31
0.0
  0
LINE
  5
5E
330
4F
100
AcDbEntity
  8
1
  6
Continuous
 62
     7
100
AcDbLine
 10
613.4209563719537
 20
83.785429812977
 30
0.0
 11
613.4209563719537
 21
88.785429812977
 31
0.0
  0
LINE
  5
5F
330
4F
100
AcDbEntity
  8
1
  6
Continuous
 62
     7
100
AcDbLine
 10
606.4209563719537
 20
88.785429812977
 30
0.0
 11
790.4209563719538
 21
88.785429812977
 31
0.0
  0
LINE
  5
60
330
4F
100
AcDbEntity
  8
1
  6
Continuous
 62
     7
100
AcDbLine
 10
631.4209563719538
 20
78.785429812977
 30
0.0
 11
631.4209563719538
 21
83.785429812977
 31
0.0
  0
LINE
  5
61
330
4F
100
AcDbEntity
  8
1
  6
Continuous
 62
     7
100
AcDbLine
 10
613.4209563719537
 20
78.785429812977
 30
0.0
 11
613.4209563719537
 21
83.785429812977
 31
0.0
  0
LINE
  5
62
330
4F
100
AcDbEntity
  8
1
  6
Continuous
 62
     7
100
AcDbLine
 10
606.4209563719537
 20
83.785429812977
 30
0.0
 11
790.4209563719538
 21
83.785429812977
 31
0.0
  0
LINE
  5
63
330
4F
100
AcDbEntity
  8
1
  6
Continuous
 62
     7
100
AcDbLine
 10
631.4209563719538
 20
73.785429812977
 30
0.0
 11
631.4209563719538
 21
78.785429812977
 31
0.0
  0
LINE
  5
64
330
4F
100
AcDbEntity
  8
1
  6
Continuous
 62
     7
100
AcDbLine
 10
613.4209563719537
 20
73.785429812977
 30
0.0
 11
613.4209563719537
 21
78.785429812977
 31
0.0
  0
LINE
  5
65
330
4F
100
AcDbEntity
  8
1
  6
Continuous
 62
     7
100
AcDbLine
 10
606.4209563719537
 20
78.785429812977
 30
0.0
 11
790.4209563719538
 21
78.785429812977
 31
0.0
  0
LINE
  5
66
102
{ACAD_REACTORS
330
AE
102
}
330
4F
100
AcDbEntity
  8
1
  6
Continuous
 62
     7
100
AcDbLine
 10
781.2638312118596
 20
64.34343189335733
 30
0.0
 11
779.9304978785261
 21
63.57420112412673
 31
0.0
  0
LINE
  5
67
102
{ACAD_REACTORS
330
AE
102
}
330
4F
100
AcDbEntity
  8
1
  6
Continuous
 62
     7
100
AcDbLine
 10
780.0972570606962
 20
64.44006634562494
 30
0.0
 11
780.9306829095332
 21
64.92088895072324
 31
0.0
  0
LINE
  5
68
102
{ACAD_REACTORS
330
AE
102
}
330
4F
100
AcDbEntity
  8
1
  6
Continuous
 62
     7
100
AcDbLine
 10
780.0972570606962
 20
65.95209647964363
 30
0.0
 11
780.0972570606962
 21
64.44006634562494
 31
0.0
  0
LINE
  5
69
102
{ACAD_REACTORS
330
AE
102
}
330
4F
100
AcDbEntity
  8
1
  6
Continuous
 62
     7
100
AcDbLine
 10
781.0972570606962
 20
65.95209647964363
 30
0.0
 11
780.0972570606962
 21
65.95209647964363
 31
0.0
  0
LINE
  5
6A
102
{ACAD_REACTORS
330
AE
102
}
330
4F
100
AcDbEntity
  8
1
  6
Continuous
 62
     7
100
AcDbLine
 10
780.0972570606962
 20
66.61876314631026
 30
0.0
 11
781.0972570606962
 21
66.61876314631026
 31
0.0
  0
LINE
  5
6B
102
{ACAD_REACTORS
330
AE
102
}
330
4F
100
AcDbEntity
  8
1
  6
Continuous
 62
     7
100
AcDbLine
 10
780.0972570606962
 20
68.13079328032894
 30
0.0
 11
780.0972570606962
 21
66.61876314631026
 31
0.0
  0
LINE
  5
6C
102
{ACAD_REACTORS
330
AE
102
}
330
4F
100
AcDbEntity
  8
1
  6
Continuous
 62
     7
100
AcDbLine
 10
780.9306829095332
 20
67.64997067523076
 30
0.0
 11
780.0972570606962
 21
68.13079328032894
 31
0.0
  0
LINE
  5
6D
102
{ACAD_REACTORS
330
AE
102
}
330
4F
100
AcDbEntity
  8
1
  6
Continuous
 62
     7
100
AcDbLine
 10
779.9304978785261
 20
68.99665850182727
 30
0.0
 11
781.2638312118596
 21
68.22742773259644
 31
0.0
  0
LINE
  5
6E
102
{ACAD_REACTORS
330
AF
102
}
330
4F
100
AcDbEntity
  8
1
  6
Continuous
 62
     7
100
AcDbLine
 10
772.763923727363
 20
64.63216042204023
 30
0.0
 11
772.763923727363
 21
67.93869920391366
 31
0.0
  0
LINE
  5
6F
102
{ACAD_REACTORS
330
AF
102
}
330
4F
100
AcDbEntity
  8
1
  6
Continuous
 62
     7
100
AcDbLine
 10
773.4305903940295
 20
64.8246817302403
 30
0.0
 11
773.4305903940295
 21
64.63216042204023
 31
0.0
  0
LINE
  5
70
102
{ACAD_REACTORS
330
AF
102
}
330
4F
100
AcDbEntity
  8
1
  6
Continuous
 62
     7
100
AcDbLine
 10
773.4305903940295
 20
67.93869920391366
 30
0.0
 11
773.4305903940295
 21
64.8246817302403
 31
0.0
  0
LINE
  5
71
102
{ACAD_REACTORS
330
B0
102
}
330
4F
100
AcDbEntity
  8
1
  6
Continuous
 62
     7
100
AcDbLine
 10
776.5973495761999
 20
62.22804727797281
 30
0.0
 11
774.4307754250368
 21
63.47799390364391
 31
0.0
  0
LINE
  5
72
102
{ACAD_REACTORS
330
B0
102
}
330
4F
100
AcDbEntity
  8
1
  6
Continuous
 62
     7
100
AcDbLine
 10
774.763923727363
 20
64.0554509610097
 30
0.0
 11
776.9304978785261
 21
62.8055043353386
 31
0.0
  0
LINE
  5
73
102
{ACAD_REACTORS
330
B0
102
}
330
4F
100
AcDbEntity
  8
1
  6
Continuous
 62
     7
100
AcDbLine
 10
774.763923727363
 20
68.70792997314437
 30
0.0
 11
774.763923727363
 21
64.0554509610097
 31
0.0
  0
LINE
  5
74
102
{ACAD_REACTORS
330
B0
102
}
330
4F
100
AcDbEntity
  8
1
  6
Continuous
 62
     7
100
AcDbLine
 10
774.0972570606962
 20
64.05545096100958
 30
0.0
 11
774.0972570606962
 21
68.70792997314437
 31
0.0
  0
LINE
  5
75
102
{ACAD_REACTORS
330
B1
102
}
330
4F
100
AcDbEntity
  8
1
  6
Continuous
 62
     7
100
AcDbLine
 10
778.2694900437397
 20
69.64913023124929
 30
0.0
 11
777.0972570606962
 21
67.61876314631026
 31
0.0
  0
LINE
  5
76
102
{ACAD_REACTORS
330
B1
102
}
330
4F
100
AcDbEntity
  8
1
  6
Continuous
 62
     7
100
AcDbLine
 10
778.763923727363
 20
63.0936988835788
 30
0.0
 11
778.763923727363
 21
69.51664712501157
 31
0.0
  0
LINE
  5
77
102
{ACAD_REACTORS
330
B1
102
}
330
4F
100
AcDbEntity
  8
1
  6
Continuous
 62
     7
100
AcDbLine
 10
778.0972570606962
 20
66.285429812977
 30
0.0
 11
778.0972570606962
 21
63.0936988835788
 31
0.0
  0
LINE
  5
78
102
{ACAD_REACTORS
330
B1
102
}
330
4F
100
AcDbEntity
  8
1
  6
Continuous
 62
     7
100
AcDbLine
 10
776.0972570606962
 20
64.63301488560991
 30
0.0
 11
776.0972570606962
 21
66.285429812977
 31
0.0
  0
LINE
  5
79
102
{ACAD_REACTORS
330
B1
102
}
330
4F
100
AcDbEntity
  8
1
  6
Continuous
 62
     7
100
AcDbLine
 10
775.4305903940295
 20
66.285429812977
 30
0.0
 11
775.4305903940295
 21
64.63301488560991
 31
0.0
  0
LINE
  5
7A
102
{ACAD_REACTORS
330
B1
102
}
330
4F
100
AcDbEntity
  8
1
  6
Continuous
 62
     7
100
AcDbLine
 10
775.9250240776531
 20
69.64913023124929
 30
0.0
 11
777.0972570606962
 21
67.61876314631026
 31
0.0
  0
LINE
  5
7B
102
{ACAD_REACTORS
330
B1
102
}
330
4F
100
AcDbEntity
  8
1
  6
Continuous
 62
     7
100
AcDbLine
 10
775.4305903940295
 20
66.285429812977
 30
0.0
 11
775.4305903940295
 21
69.51664712501157
 31
0.0
  0
LINE
  5
7C
330
4F
100
AcDbEntity
  8
1
  6
Continuous
 62
     7
100
AcDbLine
 10
777.0972570606962
 20
61.285429812977
 30
0.0
 11
768.6808217855547
 21
66.14106554863555
 31
0.0
  0
LINE
  5
7D
330
4F
100
AcDbEntity
  8
1
  6
Continuous
 62
     7
100
AcDbLine
 10
785.5136923358378
 20
66.14106554863555
 30
0.0
 11
777.0972570606962
 21
61.285429812977
 31
0.0
  0
LINE
  5
7E
330
4F
100
AcDbEntity
  8
1
  6
Continuous
 62
     7
100
AcDbLine
 10
777.0972570606962
 20
71.285429812977
 30
0.0
 11
785.5136923358378
 21
66.42979407731833
 31
0.0
  0
LINE
  5
7F
330
4F
100
AcDbEntity
  8
1
  6
Continuous
 62
     7
100
AcDbLine
 10
768.6808217855547
 20
66.42979407731833
 30
0.0
 11
777.0972570606962
 21
71.285429812977
 31
0.0
  0
LINE
  5
80
102
{ACAD_REACTORS
330
B1
102
}
330
4F
100
AcDbEntity
  8
1
  6
Continuous
 62
     7
100
AcDbLine
 10
776.0972570606962
 20
68.01748062054584
 30
0.0
 11
776.0972570606962
 21
66.285429812977
 31
0.0
  0
LINE
  5
81
102
{ACAD_REACTORS
330
B1
102
}
330
4F
100
AcDbEntity
  8
1
  6
Continuous
 62
     7
100
AcDbLine
 10
776.9529194933987
 20
66.535429812977
 30
0.0
 11
776.0972570606962
 21
68.01748062054584
 31
0.0
  0
LINE
  5
82
102
{ACAD_REACTORS
330
B1
102
}
330
4F
100
AcDbEntity
  8
1
  6
Continuous
 62
     7
100
AcDbLine
 10
778.0972570606962
 20
68.01748062054584
 30
0.0
 11
777.2415946279938
 21
66.535429812977
 31
0.0
  0
LINE
  5
83
102
{ACAD_REACTORS
330
B1
102
}
330
4F
100
AcDbEntity
  8
1
  6
Continuous
 62
     7
100
AcDbLine
 10
778.0972570606962
 20
66.285429812977
 30
0.0
 11
778.0972570606962
 21
68.01748062054584
 31
0.0
  0
LINE
  5
84
102
{ACAD_REACTORS
330
AE
102
}
330
4F
100
AcDbEntity
  8
1
  6
Continuous
 62
     7
100
AcDbLine
 10
779.4305903940298
 20
63.86292965280963
 30
0.0
 11
779.4305903940298
 21
68.70792997314437
 31
0.0
  0
LINE
  5
85
330
4F
100
AcDbEntity
  8
1
  6
Continuous
 62
     7
100
AcDbLine
 10
790.4209563719538
 20
242.785429812977
 30
0.0
 11
503.4209563719535
 21
242.785429812977
 31
0.0
  0
LINE
  5
86
330
4F
100
AcDbEntity
  8
1
  6
Continuous
 62
     7
100
AcDbLine
 10
790.4209563719538
 20
58.785429812977
 30
0.0
 11
790.4209563719538
 21
242.785429812977
 31
0.0
  0
LINE
  5
87
330
4F
100
AcDbEntity
  8
1
  6
Continuous
 62
     7
100
AcDbLine
 10
503.4209563719535
 20
58.785429812977
 30
0.0
 11
790.4209563719538
 21
58.785429812977
 31
0.0
  0
LINE
  5
88
330
4F
100
AcDbEntity
  8
1
  6
Continuous
 62
     7
100
AcDbLine
 10
795.4209563719538
 20
53.785429812977
 30
0.0
 11
795.4209563719538
 21
263.7854298129771
 31
0.0
  0
LINE
  5
89
330
4F
100
AcDbEntity
  8
1
  6
Continuous
 62
     7
100
AcDbLine
 10
795.4209563719538
 20
263.7854298129771
 30
0.0
 11
498.4209563719536
 21
263.7854298129771
 31
0.0
  0
LINE
  5
8A
330
4F
100
AcDbEntity
  8
1
  6
Continuous
 62
     7
100
AcDbLine
 10
498.4209563719536
 20
263.7854298129771
 30
0.0
 11
498.4209563719536
 21
53.785429812977
 31
0.0
  0
LINE
  5
8B
330
4F
100
AcDbEntity
  8
1
  6
Continuous
 62
     7
100
AcDbLine
 10
498.4209563719536
 20
53.785429812977
 30
0.0
 11
795.4209563719538
 21
53.785429812977
 31
0.0
  0
LINE
  5
8C
330
4F
100
AcDbEntity
  8
1
  6
Continuous
 62
     7
100
AcDbLine
 10
646.9209563719533
 20
263.7854298129771
 30
0.0
 11
646.9209563719533
 21
248.7854298129771
 31
0.0
  0
LINE
  5
8D
330
4F
100
AcDbEntity
  8
1
  6
Continuous
 62
     7
100
AcDbLine
 10
636.4209563719537
 20
73.785429812977
 30
0.0
 11
636.4209563719537
 21
58.785429812977
 31
0.0
  0
LINE
  5
8E
330
4F
100
AcDbEntity
  8
1
  6
Continuous
 62
     7
100
AcDbLine
 10
763.773557749439
 20
73.785429812977
 30
0.0
 11
763.773557749439
 21
58.785429812977
 31
0.0
  0
LINE
  5
8F
330
4F
100
AcDbEntity
  8
1
  6
Continuous
 62
     7
100
AcDbLine
 10
746.4209563719538
 20
73.785429812977
 30
0.0
 11
746.4209563719538
 21
58.785429812977
 31
0.0
  0
LINE
  5
90
330
4F
100
AcDbEntity
  8
1
  6
Continuous
 62
     7
100
AcDbLine
 10
606.4209563719537
 20
68.78542981297689
 30
0.0
 11
636.4209563719537
 21
68.78542981297689
 31
0.0
  0
LINE
  5
91
330
4F
100
AcDbEntity
  8
1
  6
Continuous
 62
     7
100
AcDbLine
 10
606.4209563719537
 20
63.78542981297686
 30
0.0
 11
636.4209563719537
 21
63.78542981297686
 31
0.0
  0
ARC
  5
92
102
{ACAD_REACTORS
330
AE
102
}
330
4F
100
AcDbEntity
  8
1
  6
Continuous
 62
     7
100
AcDbCircle
 10
781.0972570606962
 20
64.63216042204023
 30
0.0
 40
0.3333333333334845
100
AcDbArc
 50
299.9816393688844
 51
119.981639368807
  0
ARC
  5
93
102
{ACAD_REACTORS
330
AE
102
}
330
4F
100
AcDbEntity
  8
1
  6
Continuous
 62
     7
100
AcDbCircle
 10
781.0972570606962
 20
66.285429812977
 30
0.0
 40
0.3333333333333712
100
AcDbArc
 50
270.0
 51
90.0
  0
ARC
  5
94
102
{ACAD_REACTORS
330
AE
102
}
330
4F
100
AcDbEntity
  8
1
  6
Continuous
 62
     7
100
AcDbCircle
 10
781.0972570606962
 20
67.93869920391366
 30
0.0
 40
0.3333333333332573
100
AcDbArc
 50
240.0183606311832
 51
60.01836063110574
  0
ARC
  5
95
102
{ACAD_REACTORS
330
AF
102
}
330
4F
100
AcDbEntity
  8
1
  6
Continuous
 62
     7
100
AcDbCircle
 10
773.0972570606962
 20
64.63216042204023
 30
0.0
 40
0.3333333333331439
100
AcDbArc
 50
180.0
 51
0.0
  0
ARC
  5
96
102
{ACAD_REACTORS
330
AF
102
}
330
4F
100
AcDbEntity
  8
1
  6
Continuous
 62
     7
100
AcDbCircle
 10
773.0972570606962
 20
67.93869920391366
 30
0.0
 40
0.3333333333333712
100
AcDbArc
 50
0.0
 51
180.0
  0
ARC
  5
97
102
{ACAD_REACTORS
330
B0
102
}
330
4F
100
AcDbEntity
  8
1
  6
Continuous
 62
     7
100
AcDbCircle
 10
776.763923727363
 20
62.5167758066557
 30
0.0
 40
0.3333333333333079
100
AcDbArc
 50
240.0183606311657
 51
60.0183606311663
  0
ARC
  5
98
102
{ACAD_REACTORS
330
B0
102
}
330
4F
100
AcDbEntity
  8
1
  6
Continuous
 62
     7
100
AcDbCircle
 10
774.4305903940295
 20
68.70792997314437
 30
0.0
 40
0.3333333333334849
100
AcDbArc
 50
0.0
 51
180.0
  0
ARC
  5
99
102
{ACAD_REACTORS
330
B1
102
}
330
4F
100
AcDbEntity
  8
1
  6
Continuous
 62
     7
100
AcDbCircle
 10
778.4989575148878
 20
69.51664712501157
 30
0.0
 40
0.2649662124752012
100
AcDbArc
 50
0.0
 51
149.9999999999879
  0
ARC
  5
9A
102
{ACAD_REACTORS
330
B1
102
}
330
4F
100
AcDbEntity
  8
1
  6
Continuous
 62
     7
100
AcDbCircle
 10
778.4305903940298
 20
63.0936988835788
 30
0.0
 40
0.3333333333335986
100
AcDbArc
 50
180.0
 51
0.0
  0
ARC
  5
9B
102
{ACAD_REACTORS
330
B1
102
}
330
4F
100
AcDbEntity
  8
1
  6
Continuous
 62
     7
100
AcDbCircle
 10
775.763923727363
 20
64.63301488560991
 30
0.0
 40
0.3333333333334849
100
AcDbArc
 50
180.0
 51
0.0
  0
ARC
  5
9C
102
{ACAD_REACTORS
330
B1
102
}
330
4F
100
AcDbEntity
  8
1
  6
Continuous
 62
     7
100
AcDbCircle
 10
775.695556606505
 20
69.51664712501157
 30
0.0
 40
0.2649662124753319
100
AcDbArc
 50
30.00000000001207
 51
180.0
  0
ARC
  5
9D
102
{ACAD_REACTORS
330
AE
102
}
330
4F
100
AcDbEntity
  8
1
  6
Continuous
 62
     7
100
AcDbCircle
 10
779.763923727363
 20
63.86292965280963
 30
0.0
 40
0.3333333333332575
100
AcDbArc
 50
180.0
 51
299.9816393688331
  0
ARC
  5
9E
102
{ACAD_REACTORS
330
AE
102
}
330
4F
100
AcDbEntity
  8
1
  6
Continuous
 62
     7
100
AcDbCircle
 10
779.763923727363
 20
68.70792997314437
 30
0.0
 40
0.3333333333333141
100
AcDbArc
 50
60.0183606311663
 51
180.0
  0
ARC
  5
9F
330
4F
100
AcDbEntity
  8
1
  6
Continuous
 62
     7
100
AcDbCircle
 10
785.4304052602561
 20
66.285429812977
 30
0.0
 40
0.1666666666667707
100
AcDbArc
 50
299.9816393689014
 51
60.01836063107906
  0
ARC
  5
A0
330
4F
100
AcDbEntity
  8
1
  6
Continuous
 62
     7
100
AcDbCircle
 10
768.7641088611364
 20
66.285429812977
 30
0.0
 40
0.1666666666666154
100
AcDbArc
 50
119.9816393688871
 51
240.0183606311324
  0
ARC
  5
A1
102
{ACAD_REACTORS
330
B0
102
}
330
4F
100
AcDbEntity
  8
1
  6
Continuous
 62
     7
100
AcDbCircle
 10
774.763923727363
 20
64.0554509610097
 30
0.0
 40
0.6666666666668561
100
AcDbArc
 50
180.0000000000097
 51
240.018360631166
  0
ARC
  5
A2
102
{ACAD_REACTORS
330
B1
102
}
330
4F
100
AcDbEntity
  8
1
  6
Continuous
 62
     7
100
AcDbCircle
 10
777.0972570606962
 20
66.61876314631026
 30
0.0
 40
0.1666666666667081
100
AcDbArc
 50
209.9999999999617
 51
330.0000000000579
  0
MTEXT
  5
A4
330
4F
100
AcDbEntity
  8
1
 62
     7
100
AcDbMText
 10
755.0972570606962
 20
63.84606923373305
 30
0.0
 40
4.5
 41
0.0
 71
     5
 72
     1
  1
1:2
  7
CONVERTER_11
 73
     1
 44
1.32052821128451
  0
MTEXT
  5
A5
330
4F
100
AcDbEntity
  8
1
 62
     7
100
AcDbMText
 10
755.0972570606962
 20
70.04606923373298
 30
0.0
 40
3.0
 41
0.0
 71
     5
 72
     1
  1
Scale
  7
CONVERTER_11
 73
     1
 44
1.32052821128451
  0
MTEXT
  5
A6
330
4F
100
AcDbEntity
  8
1
 62
     7
100
AcDbMText
 10
642.6972570606964
 20
66.285429812977
 30
0.0
 40
4.5
 41
0.0
 71
     4
 72
     1
  1
JCVP 16 LP\PSurface mounting housing, 1 lever + cover, PG21 - JEI
  7
CONVERTER_11
 73
     1
 44
0.90036014405762
  0
MTEXT
  5
A7
330
4F
100
AcDbEntity
  8
1
 62
     7
100
AcDbMText
 10
649.9209563719533
 20
247.7854298129771
 30
0.0
 40
4.0
 41
0.0
 71
     5
 72
     1
  1
Diritti riservati      All rights reserved
  7
CONVERTER_11
 73
     1
 44
1.32052821128451
  0
MTEXT
  5
A9
330
4F
100
AcDbEntity
  8
1
 62
     7
100
AcDbMText
 10
621.4209563719537
 20
71.28542981297694
 30
0.0
 40
2.5
 41
0.0
 71
     5
 72
     1
  1
dimensions in mm
  7
CONVERTER_12
 73
     1
 44
0.60024009603842
  0
MTEXT
  5
AA
330
4F
100
AcDbEntity
  8
1
 62
     7
100
AcDbMText
 10
607.4209563719537
 20
66.28542981297687
 30
0.0
 40
3.0
 41
0.0
 71
     4
 72
     1
  1
Date
  7
CONVERTER_11
 73
     1
 44
1.32052821128451
  0
MTEXT
  5
AB
330
4F
100
AcDbEntity
  8
1
 62
     7
100
AcDbMText
 10
618.0209563719537
 20
66.28542981297687
 30
0.0
 40
3.0
 41
0.0
 71
     4
 72
     1
  1
19/06/14
  7
CONVERTER_11
 73
     1
 44
1.32052821128451
  0
MTEXT
  5
AC
330
4F
100
AcDbEntity
  8
1
 62
     7
100
AcDbMText
 10
607.4209563719537
 20
61.28542981297687
 30
0.0
 40
3.0
 41
0.0
 71
     4
 72
     1
  1
Sign.
  7
CONVERTER_11
 73
     1
 44
1.32052821128451
  0
MTEXT
  5
AD
330
4F
100
AcDbEntity
  8
1
 62
     7
100
AcDbMText
 10
618.0209563719537
 20
61.28542981297687
 30
0.0
 40
3.0
 41
0.0
 71
     4
 72
     1
  1
Radice
  7
CONVERTER_11
 73
     1
 44
1.32052821128451
  0
HATCH
  5
AE
330
4F
100
AcDbEntity
  8
1
  6
Continuous
 62
     7
100
AcDbHatch
 10
0.0
 20
0.0
 30
0.0
210
0.0
220
0.0
230
1.0
  2
SOLID
 70
     1
 71
     1
 91
        1
 92
        1
 93
       14
 72
     2
 10
779.763923727363
 20
68.70792997314437
 40
0.3333333333333141
 50
60.0183606311663
 51
180.0
 73
     1
 72
     1
 10
779.4305903940298
 20
68.70792997314437
 11
779.4305903940298
 21
63.86292965280963
 72
     2
 10
779.763923727363
 20
63.86292965280963
 40
0.3333333333332575
 50
180.0
 51
299.9816393688331
 73
     1
 72
     1
 10
779.9304978785261
 20
63.57420112412673
 11
781.2638312118596
 21
64.34343189335733
 72
     2
 10
781.0972570606962
 20
64.63216042204023
 40
0.3333333333334845
 50
299.9816393688844
 51
479.981639368807
 73
     1
 72
     1
 10
780.9306829095332
 20
64.92088895072324
 11
780.0972570606962
 21
64.44006634562494
 72
     1
 10
780.0972570606962
 20
64.44006634562494
 11
780.0972570606962
 21
65.95209647964363
 72
     1
 10
780.0972570606962
 20
65.95209647964363
 11
781.0972570606962
 21
65.95209647964363
 72
     2
 10
781.0972570606962
 20
66.285429812977
 40
0.3333333333333712
 50
270.0
 51
450.0
 73
     1
 72
     1
 10
781.0972570606962
 20
66.61876314631026
 11
780.0972570606962
 21
66.61876314631026
 72
     1
 10
780.0972570606962
 20
66.61876314631026
 11
780.0972570606962
 21
68.13079328032894
 72
     1
 10
780.0972570606962
 20
68.13079328032894
 11
780.9306829095332
 21
67.64997067523076
 72
     2
 10
781.0972570606962
 20
67.93869920391366
 40
0.3333333333332573
 50
240.0183606311832
 51
420.0183606311057
 73
     1
 72
     1
 10
781.2638312118596
 20
68.22742773259644
 11
779.9304978785261
 21
68.99665850182727
 97
       14
330
94
330
6C
330
6B
330
6A
330
93
330
69
330
68
330
67
330
92
330
66
330
9D
330
84
330
9E
330
6D
 75
     0
 76
     1
 98
        1
 10
0.0
 20
0.0
  0
HATCH
  5
AF
330
4F
100
AcDbEntity
  8
1
  6
Continuous
 62
     7
100
AcDbHatch
 10
0.0
 20
0.0
 30
0.0
210
0.0
220
0.0
230
1.0
  2
SOLID
 70
     1
 71
     1
 91
        1
 92
        1
 93
        5
 72
     2
 10
773.0972570606962
 20
67.93869920391366
 40
0.3333333333333712
 50
0.0
 51
180.0
 73
     1
 72
     1
 10
772.763923727363
 20
67.93869920391366
 11
772.763923727363
 21
64.63216042204023
 72
     2
 10
773.0972570606962
 20
64.63216042204023
 40
0.3333333333331439
 50
180.0
 51
360.0
 73
     1
 72
     1
 10
773.4305903940295
 20
64.63216042204023
 11
773.4305903940295
 21
64.8246817302403
 72
     1
 10
773.4305903940295
 20
64.8246817302403
 11
773.4305903940295
 21
67.93869920391366
 97
        5
330
96
330
6E
330
95
330
6F
330
70
 75
     0
 76
     1
 98
        1
 10
0.0
 20
0.0
  0
HATCH
  5
B0
330
4F
100
AcDbEntity
  8
1
  6
Continuous
 62
     7
100
AcDbHatch
 10
0.0
 20
0.0
 30
0.0
210
0.0
220
0.0
230
1.0
  2
SOLID
 70
     1
 71
     1
 91
        1
 92
        1
 93
        7
 72
     2
 10
774.4305903940295
 20
68.70792997314437
 40
0.3333333333334849
 50
0.0
 51
180.0
 73
     1
 72
     1
 10
774.0972570606962
 20
68.70792997314437
 11
774.0972570606962
 21
64.05545096100958
 72
     2
 10
774.763923727363
 20
64.0554509610097
 40
0.6666666666668561
 50
180.0000000000097
 51
240.018360631166
 73
     1
 72
     1
 10
774.4307754250368
 20
63.47799390364391
 11
776.5973495761999
 21
62.22804727797281
 72
     2
 10
776.763923727363
 20
62.5167758066557
 40
0.3333333333333079
 50
240.0183606311657
 51
420.0183606311663
 73
     1
 72
     1
 10
776.9304978785261
 20
62.8055043353386
 11
774.763923727363
 21
64.0554509610097
 72
     1
 10
774.763923727363
 20
64.0554509610097
 11
774.763923727363
 21
68.70792997314437
 97
        7
330
98
330
74
330
A1
330
71
330
97
330
72
330
73
 75
     0
 76
     1
 98
        1
 10
0.0
 20
0.0
  0
HATCH
  5
B1
330
4F
100
AcDbEntity
  8
1
  6
Continuous
 62
     7
100
AcDbHatch
 10
0.0
 20
0.0
 30
0.0
210
0.0
220
0.0
230
1.0
  2
SOLID
 70
     1
 71
     1
 91
        1
 92
        1
 93
       16
 72
     2
 10
778.4989575148878
 20
69.51664712501157
 40
0.2649662124752012
 50
210.0000000000121
 51
360.0
 73
     0
 72
     1
 10
778.763923727363
 20
69.51664712501157
 11
778.763923727363
 21
63.0936988835788
 72
     2
 10
778.4305903940298
 20
63.0936988835788
 40
0.3333333333335986
 50
0.0
 51
180.0
 73
     0
 72
     1
 10
778.0972570606962
 20
63.0936988835788
 11
778.0972570606962
 21
66.285429812977
 72
     1
 10
778.0972570606962
 20
66.285429812977
 11
778.0972570606962
 21
68.01748062054584
 72
     1
 10
778.0972570606962
 20
68.01748062054584
 11
777.2415946279938
 21
66.535429812977
 72
     2
 10
777.0972570606962
 20
66.61876314631026
 40
0.1666666666667081
 50
29.99999999994215
 51
150.0000000000383
 73
     0
 72
     1
 10
776.9529194933987
 20
66.535429812977
 11
776.0972570606962
 21
68.01748062054584
 72
     1
 10
776.0972570606962
 20
68.01748062054584
 11
776.0972570606962
 21
66.285429812977
 72
     1
 10
776.0972570606962
 20
66.285429812977
 11
776.0972570606962
 21
64.63301488560991
 72
     2
 10
775.763923727363
 20
64.63301488560991
 40
0.3333333333334849
 50
0.0
 51
180.0
 73
     0
 72
     1
 10
775.4305903940295
 20
64.63301488560991
 11
775.4305903940295
 21
66.285429812977
 72
     1
 10
775.4305903940295
 20
66.285429812977
 11
775.4305903940295
 21
69.51664712501157
 72
     2
 10
775.695556606505
 20
69.51664712501157
 40
0.2649662124753319
 50
180.0
 51
329.9999999999879
 73
     0
 72
     1
 10
775.9250240776531
 20
69.64913023124929
 11
777.0972570606962
 21
67.61876314631026
 72
     1
 10
777.0972570606962
 20
67.61876314631026
 11
778.2694900437397
 21
69.64913023124929
 97
       16
330
7A
330
9C
330
7B
330
79
330
9B
330
78
330
80
330
81
330
A2
330
82
330
83
330
77
330
9A
330
76
330
99
330
75
 75
     0
 76
     1
 98
        1
 10
0.0
 20
0.0
  0
ENDBLK
  5
51
330
4F
100
AcDbEntity
  8
0
100
AcDbBlockEnd
  0
BLOCK
  5
54
330
52
100
AcDbEntity
  8
0
100
AcDbBlockBegin
  2
A4_oriz
 70
     0
 10
594.0000000000005
 20
0.0
 30
0.0
  3
A4_oriz
  1

  0
INSERT
  5
53
330
52
100
AcDbEntity
  8
1
100
AcDbBlockReference
  2
_formato_A4
 10
594.0000000000005
 20
0.0
 30
0.0
 41
2.0
 42
2.0
 43
2.0
  0
ENDBLK
  5
55
330
52
100
AcDbEntity
  8
0
100
AcDbBlockEnd
  0
BLOCK
  5
57F
330
577
100
AcDbEntity
  8
0
100
AcDbBlockBegin
  2
*D3
 70
     1
 10
0.0
 20
0.0
 30
0.0
  3
*D3
  1

  0
LINE
  5
578
330
577
100
AcDbEntity
  8
Bemaßungen_TC_020513_DIN_
  6
Continuous
 62
     7
100
AcDbLine
 10
143.9578251735707
 20
121.7657519199269
 30
0.0
 11
260.9578251735708
 21
121.7657519199269
 31
0.0
  0
LINE
  5
579
330
577
100
AcDbEntity
  8
Bemaßungen_TC_020513_DIN_
  6
Continuous
 62
     7
100
AcDbLine
 10
260.9578251735703
 20
183.408583670016
 30
0.0
 11
260.9578251735703
 21
113.7657519199269
 31
0.0
  0
LINE
  5
57A
330
577
100
AcDbEntity
  8
Bemaßungen_TC_020513_DIN_
  6
Continuous
 62
     7
100
AcDbLine
 10
143.9578251735703
 20
175.713583670016
 30
0.0
 11
143.9578251735703
 21
113.7657519199269
 31
0.0
  0
SOLID
  5
57B
330
577
100
AcDbEntity
  8
Bemaßungen_TC_020513_DIN_
 62
     7
100
AcDbTrace
 10
153.9578251735707
 20
123.0822768958008
 30
0.0
 11
153.9578251735707
 21
120.4492269440529
 31
0.0
 12
143.9578251735707
 22
121.7657519199269
 32
0.0
 13
143.9578251735707
 23
121.7657519199269
 33
0.0
  0
SOLID
  5
57C
330
577
100
AcDbEntity
  8
Bemaßungen_TC_020513_DIN_
 62
     7
100
AcDbTrace
 10
250.9578251735708
 20
120.4492269440529
 30
0.0
 11
250.9578251735708
 21
123.0822768958008
 31
0.0
 12
260.9578251735708
 22
121.7657519199269
 32
0.0
 13
260.9578251735708
 23
121.7657519199269
 33
0.0
  0
MTEXT
  5
57E
330
577
100
AcDbEntity
  8
Bemaßungen_TC_020513_DIN_
 62
     7
100
AcDbMText
 10
194.7976796528796
 20
127.6944013060113
 30
0.0
 40
14.0
 41
0.0
 71
     7
 72
     1
  1
117
  7
CONVERTER_13
 11
0.9999999999970619
 21
2.424068405545306E-6
 31
0.0
 73
     1
 44
0.45454545454545
  0
ENDBLK
  5
580
330
577
100
AcDbEntity
  8
0
100
AcDbBlockEnd
  0
BLOCK
  5
58A
330
583
100
AcDbEntity
  8
0
100
AcDbBlockBegin
  2
*D4
 70
     1
 10
0.0
 20
0.0
 30
0.0
  3
*D4
  1

  0
LINE
  5
584
330
583
100
AcDbEntity
  8
Bemaßungen_TC_020513_DIN_
  6
Continuous
 62
     7
100
AcDbLine
 10
149.9578251735702
 20
144.9072331537139
 30
0.0
 11
254.9578251735702
 21
144.9072331537139
 31
0.0
  0
LINE
  5
585
330
583
100
AcDbEntity
  8
Bemaßungen_TC_020513_DIN_
  6
Continuous
 62
     7
100
AcDbLine
 10
254.9578251735703
 20
173.713583670016
 30
0.0
 11
254.9578251735703
 21
136.9072331537139
 31
0.0
  0
LINE
  5
586
330
583
100
AcDbEntity
  8
Bemaßungen_TC_020513_DIN_
  6
Continuous
 62
     7
100
AcDbLine
 10
149.9578251735703
 20
173.713583670016
 30
0.0
 11
149.9578251735703
 21
136.9072331537139
 31
0.0
  0
SOLID
  5
587
330
583
100
AcDbEntity
  8
Bemaßungen_TC_020513_DIN_
 62
     7
100
AcDbTrace
 10
159.9578251735702
 20
146.2237581295879
 30
0.0
 11
159.9578251735702
 21
143.59070817784
 31
0.0
 12
149.9578251735702
 22
144.9072331537139
 32
0.0
 13
149.9578251735702
 23
144.9072331537139
 33
0.0
  0
SOLID
  5
588
330
583
100
AcDbEntity
  8
Bemaßungen_TC_020513_DIN_
 62
     7
100
AcDbTrace
 10
244.9578251735702
 20
143.59070817784
 30
0.0
 11
244.9578251735702
 21
146.2237581295879
 31
0.0
 12
254.9578251735702
 22
144.9072331537139
 32
0.0
 13
254.9578251735702
 23
144.9072331537139
 33
0.0
  0
MTEXT
  5
589
330
583
100
AcDbEntity
  8
Bemaßungen_TC_020513_DIN_
 62
     7
100
AcDbMText
 10
194.7714177156347
 20
151.0945584644047
 30
0.0
 40
14.0
 41
0.0
 71
     7
 72
     1
  1
105
  7
CONVERTER_13
 11
0.9999999999970619
 21
2.424068405545306E-6
 31
0.0
 73
     1
 44
0.45454545454545
  0
ENDBLK
  5
58B
330
583
100
AcDbEntity
  8
0
100
AcDbBlockEnd
  0
BLOCK
  5
595
330
58E
100
AcDbEntity
  8
0
100
AcDbBlockBegin
  2
*D5
 70
     1
 10
0.0
 20
0.0
 30
0.0
  3
*D5
  1

  0
LINE
  5
58F
330
58E
100
AcDbEntity
  8
Bemaßungen_TC_020513_DIN_
  6
Continuous
 62
     7
100
AcDbLine
 10
373.0693982010044
 20
121.6101010829512
 30
0.0
 11
430.0693982010044
 21
121.6101010829512
 31
0.0
  0
LINE
  5
590
330
58E
100
AcDbEntity
  8
Bemaßungen_TC_020513_DIN_
  6
Continuous
 62
     7
100
AcDbLine
 10
430.0693982010044
 20
173.713583670016
 30
0.0
 11
430.0693982010044
 21
113.6101010829512
 31
0.0
  0
LINE
  5
591
330
58E
100
AcDbEntity
  8
Bemaßungen_TC_020513_DIN_
  6
Continuous
 62
     7
100
AcDbLine
 10
373.0693982010044
 20
173.713583670016
 30
0.0
 11
373.0693982010044
 21
113.6101010829512
 31
0.0
  0
SOLID
  5
592
330
58E
100
AcDbEntity
  8
Bemaßungen_TC_020513_DIN_
 62
     7
100
AcDbTrace
 10
383.0693982010044
 20
122.9266260588252
 30
0.0
 11
383.0693982010044
 21
120.2935761070773
 31
0.0
 12
373.0693982010044
 22
121.6101010829512
 32
0.0
 13
373.0693982010044
 23
121.6101010829512
 33
0.0
  0
SOLID
  5
593
330
58E
100
AcDbEntity
  8
Bemaßungen_TC_020513_DIN_
 62
     7
100
AcDbTrace
 10
420.0693982010044
 20
120.2935761070773
 30
0.0
 11
420.0693982010044
 21
122.9266260588252
 31
0.0
 12
430.0693982010044
 22
121.6101010829512
 32
0.0
 13
430.0693982010044
 23
121.6101010829512
 33
0.0
  0
MTEXT
  5
594
330
58E
100
AcDbEntity
  8
Bemaßungen_TC_020513_DIN_
 62
     7
100
AcDbMText
 10
396.4624223028689
 20
127.7687770075574
 30
0.0
 40
14.0
 41
0.0
 71
     7
 72
     1
  1
57
  7
CONVERTER_13
 11
0.9999999999970619
 21
2.424068405545306E-6
 31
0.0
 73
     1
 44
0.45454545454545
  0
ENDBLK
  5
596
330
58E
100
AcDbEntity
  8
0
100
AcDbBlockEnd
  0
BLOCK
  5
5A0
330
599
100
AcDbEntity
  8
0
100
AcDbBlockBegin
  2
*D6
 70
     1
 10
0.0
 20
0.0
 30
0.0
  3
*D6
  1

  0
LINE
  5
59A
330
599
100
AcDbEntity
  8
Bemaßungen_TC_020513_DIN_
  6
Continuous
 62
     7
100
AcDbLine
 10
424.069398201006
 20
145.5926881476279
 30
0.0
 11
379.069398201006
 21
145.5926881476279
 31
0.0
  0
LINE
  5
59B
330
599
100
AcDbEntity
  8
Bemaßungen_TC_020513_DIN_
  6
Continuous
 62
     7
100
AcDbLine
 10
379.0693982010063
 20
173.7135836700161
 30
0.0
 11
379.0693982010063
 21
137.5926881476279
 31
0.0
  0
LINE
  5
59C
330
599
100
AcDbEntity
  8
Bemaßungen_TC_020513_DIN_
  6
Continuous
 62
     7
100
AcDbLine
 10
424.0693982010063
 20
173.7135836700161
 30
0.0
 11
424.0693982010063
 21
137.5926881476279
 31
0.0
  0
SOLID
  5
59D
330
599
100
AcDbEntity
  8
Bemaßungen_TC_020513_DIN_
 62
     7
100
AcDbTrace
 10
414.069398201006
 20
144.2761631717539
 30
0.0
 11
414.069398201006
 21
146.9092131235018
 31
0.0
 12
424.069398201006
 22
145.5926881476279
 32
0.0
 13
424.069398201006
 23
145.5926881476279
 33
0.0
  0
SOLID
  5
59E
330
599
100
AcDbEntity
  8
Bemaßungen_TC_020513_DIN_
 62
     7
100
AcDbTrace
 10
389.069398201006
 20
146.9092131235018
 30
0.0
 11
389.069398201006
 21
144.2761631717539
 31
0.0
 12
379.069398201006
 22
145.5926881476279
 32
0.0
 13
379.069398201006
 23
145.5926881476279
 33
0.0
  0
MTEXT
  5
59F
330
599
100
AcDbEntity
  8
Bemaßungen_TC_020513_DIN_
 62
     7
100
AcDbMText
 10
396.2953008840439
 20
151.7513640722341
 30
0.0
 40
14.0
 41
0.0
 71
     7
 72
     1
  1
45
  7
CONVERTER_13
 11
0.9999999999970619
 21
2.424068405545306E-6
 31
0.0
 73
     1
 44
0.45454545454545
  0
ENDBLK
  5
5A1
330
599
100
AcDbEntity
  8
0
100
AcDbBlockEnd
  0
BLOCK
  5
5AD
330
5A4
100
AcDbEntity
  8
0
100
AcDbBlockBegin
  2
*D7
 70
     1
 10
0.0
 20
0.0
 30
0.0
  3
*D7
  1

  0
LINE
  5
5A5
330
5A4
100
AcDbEntity
  8
Bemaßungen_TC_020513_DIN_
  6
Continuous
 62
     7
100
AcDbLine
 10
462.1554678527468
 20
175.713583670016
 30
0.0
 11
462.1554678527468
 21
155.713583670016
 31
0.0
  0
LINE
  5
5A6
330
5A4
100
AcDbEntity
  8
Bemaßungen_TC_020513_DIN_
  6
Continuous
 62
     7
100
AcDbLine
 10
462.1554678527468
 20
179.7135836700161
 30
0.0
 11
462.1554678527468
 21
175.713583670016
 31
0.0
  0
LINE
  5
5A7
330
5A4
100
AcDbEntity
  8
Bemaßungen_TC_020513_DIN_
  6
Continuous
 62
     7
100
AcDbLine
 10
462.1554678527468
 20
199.7135836700161
 30
0.0
 11
462.1554678527468
 21
179.7135836700161
 31
0.0
  0
LINE
  5
5A8
330
5A4
100
AcDbEntity
  8
Bemaßungen_TC_020513_DIN_
  6
Continuous
 62
     7
100
AcDbLine
 10
434.0693982010045
 20
175.7135836700161
 30
0.0
 11
470.1554678527468
 21
175.7135836700161
 31
0.0
  0
LINE
  5
5A9
330
5A4
100
AcDbEntity
  8
Bemaßungen_TC_020513_DIN_
  6
Continuous
 62
     7
100
AcDbLine
 10
434.0693982010045
 20
179.7135836700161
 30
0.0
 11
470.1554678527468
 21
179.7135836700161
 31
0.0
  0
SOLID
  5
5AA
330
5A4
100
AcDbEntity
  8
Bemaßungen_TC_020513_DIN_
 62
     7
100
AcDbTrace
 10
460.8389428768728
 20
189.7135836700161
 30
0.0
 11
463.4719928286207
 21
189.7135836700161
 31
0.0
 12
462.1554678527468
 22
179.7135836700161
 32
0.0
 13
462.1554678527468
 23
179.7135836700161
 33
0.0
  0
SOLID
  5
5AB
330
5A4
100
AcDbEntity
  8
Bemaßungen_TC_020513_DIN_
 62
     7
100
AcDbTrace
 10
463.4719928286207
 20
165.713583670016
 30
0.0
 11
460.8389428768728
 21
165.713583670016
 31
0.0
 12
462.1554678527468
 22
175.713583670016
 32
0.0
 13
462.1554678527468
 23
175.713583670016
 33
0.0
  0
MTEXT
  5
5AC
330
5A4
100
AcDbEntity
  8
Bemaßungen_TC_020513_DIN_
 62
     7
100
AcDbMText
 10
456.2554678527467
 20
191.3835836700161
 30
0.0
 40
14.0
 41
0.0
 71
     7
 72
     1
  1
4
  7
CONVERTER_13
 11
0.0
 21
1.0
 31
0.0
 73
     1
 44
0.45454545454545
  0
ENDBLK
  5
5AE
330
5A4
100
AcDbEntity
  8
0
100
AcDbBlockEnd
  0
BLOCK
  5
5B8
330
5B1
100
AcDbEntity
  8
0
100
AcDbBlockBegin
  2
*D8
 70
     1
 10
0.0
 20
0.0
 30
0.0
  3
*D8
  1

  0
LINE
  5
5B2
330
5B1
100
AcDbEntity
  8
Bemaßungen_TC_020513_DIN_
  6
Continuous
 62
     7
100
AcDbLine
 10
485.9577066587202
 20
238.7135836700154
 30
0.0
 11
485.9577066587202
 21
175.7135836700153
 31
0.0
  0
LINE
  5
5B3
330
5B1
100
AcDbEntity
  8
Bemaßungen_TC_020513_DIN_
  6
Continuous
 62
     7
100
AcDbLine
 10
434.0693982010044
 20
175.7135836700161
 30
0.0
 11
493.9577066587202
 21
175.7135836700161
 31
0.0
  0
LINE
  5
5B4
330
5B1
100
AcDbEntity
  8
Bemaßungen_TC_020513_DIN_
  6
Continuous
 62
     7
100
AcDbLine
 10
421.8193982010083
 20
238.7135836700161
 30
0.0
 11
493.9577066587202
 21
238.7135836700161
 31
0.0
  0
SOLID
  5
5B5
330
5B1
100
AcDbEntity
  8
Bemaßungen_TC_020513_DIN_
 62
     7
100
AcDbTrace
 10
487.2742316345942
 20
228.7135836700154
 30
0.0
 11
484.6411816828463
 21
228.7135836700154
 31
0.0
 12
485.9577066587202
 22
238.7135836700154
 32
0.0
 13
485.9577066587202
 23
238.7135836700154
 33
0.0
  0
SOLID
  5
5B6
330
5B1
100
AcDbEntity
  8
Bemaßungen_TC_020513_DIN_
 62
     7
100
AcDbTrace
 10
484.6411816828463
 20
185.7135836700153
 30
0.0
 11
487.2742316345942
 21
185.7135836700153
 31
0.0
 12
485.9577066587202
 22
175.7135836700153
 32
0.0
 13
485.9577066587202
 23
175.7135836700153
 33
0.0
  0
MTEXT
  5
5B7
330
5B1
100
AcDbEntity
  8
Bemaßungen_TC_020513_DIN_
 62
     7
100
AcDbMText
 10
479.7656064503486
 20
202.0875081811567
 30
0.0
 40
14.0
 41
0.0
 71
     7
 72
     1
  1
63
  7
CONVERTER_13
 11
0.0
 21
1.0
 31
0.0
 73
     1
 44
0.45454545454545
  0
ENDBLK
  5
5B9
330
5B1
100
AcDbEntity
  8
0
100
AcDbBlockEnd
  0
BLOCK
  5
5C3
330
5BC
100
AcDbEntity
  8
0
100
AcDbBlockBegin
  2
*D9
 70
     1
 10
0.0
 20
0.0
 30
0.0
  3
*D9
  1

  0
LINE
  5
5BD
330
5BC
100
AcDbEntity
  8
Bemaßungen_TC_020513_DIN_
  6
Continuous
 62
     7
100
AcDbLine
 10
112.6185216909834
 20
303.2135836700152
 30
0.0
 11
112.6185216909834
 21
175.7135836700152
 31
0.0
  0
LINE
  5
5BE
330
5BC
100
AcDbEntity
  8
Bemaßungen_TC_020513_DIN_
  6
Continuous
 62
     7
100
AcDbLine
 10
139.9578251735703
 20
175.7135836700161
 30
0.0
 11
104.6185216909834
 21
175.7135836700161
 31
0.0
  0
LINE
  5
5BF
330
5BC
100
AcDbEntity
  8
Bemaßungen_TC_020513_DIN_
  6
Continuous
 62
     7
100
AcDbLine
 10
189.4578251735703
 20
303.2135836700162
 30
0.0
 11
104.6185216909834
 21
303.2135836700162
 31
0.0
  0
SOLID
  5
5C0
330
5BC
100
AcDbEntity
  8
Bemaßungen_TC_020513_DIN_
 62
     7
100
AcDbTrace
 10
113.9350466668573
 20
293.2135836700152
 30
0.0
 11
111.3019967151094
 21
293.2135836700152
 31
0.0
 12
112.6185216909834
 22
303.2135836700152
 32
0.0
 13
112.6185216909834
 23
303.2135836700152
 33
0.0
  0
SOLID
  5
5C1
330
5BC
100
AcDbEntity
  8
Bemaßungen_TC_020513_DIN_
 62
     7
100
AcDbTrace
 10
111.3019967151094
 20
185.7135836700152
 30
0.0
 11
113.9350466668573
 21
185.7135836700152
 31
0.0
 12
112.6185216909834
 22
175.7135836700152
 32
0.0
 13
112.6185216909834
 23
175.7135836700152
 33
0.0
  0
MTEXT
  5
5C2
330
5BC
100
AcDbEntity
  8
Bemaßungen_TC_020513_DIN_
 62
     7
100
AcDbMText
 10
103.0762962560842
 20
228.8427469260408
 30
0.0
 40
14.0
 41
0.0
 71
     7
 72
     1
  1
127,5
  7
CONVERTER_13
 11
0.0
 21
1.0
 31
0.0
 73
     1
 44
0.45454545454545
  0
ENDBLK
  5
5C4
330
5BC
100
AcDbEntity
  8
0
100
AcDbBlockEnd
  0
BLOCK
  5
5CE
330
5C7
100
AcDbEntity
  8
0
100
AcDbBlockBegin
  2
*D10
 70
     1
 10
0.0
 20
0.0
 30
0.0
  3
*D10
  1

  0
LINE
  5
5C8
330
5C7
100
AcDbEntity
  8
Bemaßungen_TC_020513_DIN_
  6
Continuous
 62
     7
100
AcDbLine
 10
148.9578251735707
 20
327.5752752123039
 30
0.0
 11
255.9578251735709
 21
327.5752752123039
 31
0.0
  0
LINE
  5
5C9
330
5C7
100
AcDbEntity
  8
Bemaßungen_TC_020513_DIN_
  6
Continuous
 62
     7
100
AcDbLine
 10
255.9578251735703
 20
239.713583670016
 30
0.0
 11
255.9578251735703
 21
335.5752752123039
 31
0.0
  0
LINE
  5
5CA
330
5C7
100
AcDbEntity
  8
Bemaßungen_TC_020513_DIN_
  6
Continuous
 62
     7
100
AcDbLine
 10
148.9578251735703
 20
239.713583670016
 30
0.0
 11
148.9578251735703
 21
335.5752752123039
 31
0.0
  0
SOLID
  5
5CB
330
5C7
100
AcDbEntity
  8
Bemaßungen_TC_020513_DIN_
 62
     7
100
AcDbTrace
 10
158.9578251735707
 20
328.8918001881779
 30
0.0
 11
158.9578251735707
 21
326.2587502364299
 31
0.0
 12
148.9578251735707
 22
327.5752752123039
 32
0.0
 13
148.9578251735707
 23
327.5752752123039
 33
0.0
  0
SOLID
  5
5CC
330
5C7
100
AcDbEntity
  8
Bemaßungen_TC_020513_DIN_
 62
     7
100
AcDbTrace
 10
245.9578251735709
 20
326.2587502364299
 30
0.0
 11
245.9578251735709
 21
328.8918001881779
 31
0.0
 12
255.9578251735709
 22
327.5752752123039
 32
0.0
 13
255.9578251735709
 23
327.5752752123039
 33
0.0
  0
MTEXT
  5
5CD
330
5C7
100
AcDbEntity
  8
Bemaßungen_TC_020513_DIN_
 62
     7
100
AcDbMText
 10
194.7976796528796
 20
333.7626005229947
 30
0.0
 40
14.0
 41
0.0
 71
     7
 72
     1
  1
107
  7
CONVERTER_13
 11
0.9999999999970619
 21
2.424068405545306E-6
 31
0.0
 73
     1
 44
0.45454545454545
  0
ENDBLK
  5
5CF
330
5C7
100
AcDbEntity
  8
0
100
AcDbBlockEnd
  0
BLOCK
  5
5D9
330
5D2
100
AcDbEntity
  8
0
100
AcDbBlockBegin
  2
*D11
 70
     1
 10
0.0
 20
0.0
 30
0.0
  3
*D11
  1

  0
LINE
  5
5D3
330
5D2
100
AcDbEntity
  8
Bemaßungen_TC_020513_DIN_
  6
Continuous
 62
     7
100
AcDbLine
 10
447.5033481727277
 20
327.5752752123041
 30
0.0
 11
354.3193982010091
 21
327.5752752123041
 31
0.0
  0
LINE
  5
5D4
330
5D2
100
AcDbEntity
  8
Bemaßungen_TC_020513_DIN_
  6
Continuous
 62
     7
100
AcDbLine
 10
354.3193982010093
 20
299.213583670016
 30
0.0
 11
354.3193982010093
 21
335.5752752123041
 31
0.0
  0
LINE
  5
5D5
330
5D2
100
AcDbEntity
  8
Bemaßungen_TC_020513_DIN_
  6
Continuous
 62
     7
100
AcDbLine
 10
447.5033481727274
 20
224.713583670016
 30
0.0
 11
447.5033481727274
 21
335.5752752123041
 31
0.0
  0
SOLID
  5
5D6
330
5D2
100
AcDbEntity
  8
Bemaßungen_TC_020513_DIN_
 62
     7
100
AcDbTrace
 10
437.5033481727277
 20
326.2587502364301
 30
0.0
 11
437.5033481727277
 21
328.891800188178
 31
0.0
 12
447.5033481727277
 22
327.5752752123041
 32
0.0
 13
447.5033481727277
 23
327.5752752123041
 33
0.0
  0
SOLID
  5
5D7
330
5D2
100
AcDbEntity
  8
Bemaßungen_TC_020513_DIN_
 62
     7
100
AcDbTrace
 10
364.3193982010091
 20
328.891800188178
 30
0.0
 11
364.3193982010091
 21
326.2587502364301
 31
0.0
 12
354.3193982010091
 22
327.5752752123041
 32
0.0
 13
354.3193982010091
 23
327.5752752123041
 33
0.0
  0
MTEXT
  5
5D8
330
5D2
100
AcDbEntity
  8
Bemaßungen_TC_020513_DIN_
 62
     7
100
AcDbMText
 10
395.8043972887329
 20
333.7673754206755
 30
0.0
 40
14.0
 41
0.0
 71
     7
 72
     1
  1
93
  7
CONVERTER_13
 11
0.9999999999970619
 21
2.424068405545306E-6
 31
0.0
 73
     1
 44
0.45454545454545
  0
ENDBLK
  5
5DA
330
5D2
100
AcDbEntity
  8
0
100
AcDbBlockEnd
  0
BLOCK
  5
5E4
330
5DD
100
AcDbEntity
  8
0
100
AcDbBlockBegin
  2
*D12
 70
     1
 10
0.0
 20
0.0
 30
0.0
  3
*D12
  1

  0
LINE
  5
5DE
330
5DD
100
AcDbEntity
  8
Bemaßungen_TC_020513_DIN_
  6
Continuous
 62
     7
100
AcDbLine
 10
293.1483724372522
 20
209.6555836700159
 30
0.0
 11
293.1483724372522
 21
180.5515836700158
 31
0.0
  0
LINE
  5
5DF
330
5DD
100
AcDbEntity
  8
Bemaßungen_TC_020513_DIN_
  6
Continuous
 62
     7
100
AcDbLine
 10
264.9578251735704
 20
180.551583670016
 30
0.0
 11
301.1483724372522
 21
180.551583670016
 31
0.0
  0
LINE
  5
5E0
330
5DD
100
AcDbEntity
  8
Bemaßungen_TC_020513_DIN_
  6
Continuous
 62
     7
100
AcDbLine
 10
264.9578251735704
 20
209.655583670016
 30
0.0
 11
301.1483724372522
 21
209.655583670016
 31
0.0
  0
SOLID
  5
5E1
330
5DD
100
AcDbEntity
  8
Bemaßungen_TC_020513_DIN_
 62
     7
100
AcDbTrace
 10
294.4648974131262
 20
199.6555836700159
 30
0.0
 11
291.8318474613783
 21
199.6555836700159
 31
0.0
 12
293.1483724372522
 22
209.6555836700159
 32
0.0
 13
293.1483724372522
 23
209.6555836700159
 33
0.0
  0
SOLID
  5
5E2
330
5DD
100
AcDbEntity
  8
Bemaßungen_TC_020513_DIN_
 62
     7
100
AcDbTrace
 10
291.8318474613783
 20
190.5515836700158
 30
0.0
 11
294.4648974131262
 21
190.5515836700158
 31
0.0
 12
293.1483724372522
 22
180.5515836700158
 32
0.0
 13
293.1483724372522
 23
180.5515836700158
 33
0.0
  0
MTEXT
  5
5E3
330
5DD
100
AcDbEntity
  8
Bemaßungen_TC_020513_DIN_
 62
     7
100
AcDbMText
 10
286.8703240706269
 20
181.1402867168553
 30
0.0
 40
14.0
 41
0.0
 71
     7
 72
     1
  1
PG21
  7
CONVERTER_13
 11
0.0
 21
1.0
 31
0.0
 73
     1
 44
0.45454545454545
  0
ENDBLK
  5
5E5
330
5DD
100
AcDbEntity
  8
0
100
AcDbBlockEnd
  0
ENDSEC
  0
SECTION
  2
ENTITIES
  0
INSERT
  5
56
330
1F
100
AcDbEntity
  8
0
100
AcDbBlockReference
  2
A4_oriz
 10
594.0000000000005
 20
0.0
 30
0.0
  0
POINT
  5
B2
330
1F
100
AcDbEntity
  8
Bemaßungen_TC_020513_DIN_
 62
     7
100
AcDbPoint
 10
260.9578251735703
 20
187.408583670016
 30
0.0
  0
POINT
  5
B3
330
1F
100
AcDbEntity
  8
Bemaßungen_TC_020513_DIN_
 62
     7
100
AcDbPoint
 10
143.9578251735703
 20
179.7135836700161
 30
0.0
  0
POINT
  5
B4
330
1F
100
AcDbEntity
  8
Bemaßungen_TC_020513_DIN_
 62
     7
100
AcDbPoint
 10
254.9578251735703
 20
177.7135836700161
 30
0.0
  0
POINT
  5
B5
330
1F
100
AcDbEntity
  8
Bemaßungen_TC_020513_DIN_
 62
     7
100
AcDbPoint
 10
149.9578251735703
 20
177.7135836700161
 30
0.0
  0
POINT
  5
B6
330
1F
100
AcDbEntity
  8
Bemaßungen_TC_020513_DIN_
 62
     7
100
AcDbPoint
 10
430.0693982010045
 20
177.7135836700161
 30
0.0
  0
POINT
  5
B7
330
1F
100
AcDbEntity
  8
Bemaßungen_TC_020513_DIN_
 62
     7
100
AcDbPoint
 10
373.0693982010045
 20
177.7135836700161
 30
0.0
  0
POINT
  5
B8
330
1F
100
AcDbEntity
  8
Bemaßungen_TC_020513_DIN_
 62
     7
100
AcDbPoint
 10
379.0693982010063
 20
177.7135836700161
 30
0.0
  0
POINT
  5
B9
330
1F
100
AcDbEntity
  8
Bemaßungen_TC_020513_DIN_
 62
     7
100
AcDbPoint
 10
424.0693982010063
 20
177.7135836700161
 30
0.0
  0
POINT
  5
BA
330
1F
100
AcDbEntity
  8
Bemaßungen_TC_020513_DIN_
 62
     7
100
AcDbPoint
 10
430.0693982010045
 20
175.7135836700161
 30
0.0
  0
POINT
  5
BB
330
1F
100
AcDbEntity
  8
Bemaßungen_TC_020513_DIN_
 62
     7
100
AcDbPoint
 10
430.0693982010045
 20
179.7135836700161
 30
0.0
  0
POINT
  5
BC
330
1F
100
AcDbEntity
  8
Bemaßungen_TC_020513_DIN_
 62
     7
100
AcDbPoint
 10
430.0693982010045
 20
175.7135836700161
 30
0.0
  0
POINT
  5
BD
330
1F
100
AcDbEntity
  8
Bemaßungen_TC_020513_DIN_
 62
     7
100
AcDbPoint
 10
417.8193982010083
 20
238.7135836700161
 30
0.0
  0
POINT
  5
BE
330
1F
100
AcDbEntity
  8
Bemaßungen_TC_020513_DIN_
 62
     7
100
AcDbPoint
 10
143.9578251735703
 20
175.7135836700161
 30
0.0
  0
POINT
  5
BF
330
1F
100
AcDbEntity
  8
Bemaßungen_TC_020513_DIN_
 62
     7
100
AcDbPoint
 10
193.4578251735703
 20
303.213583670016
 30
0.0
  0
POINT
  5
C0
330
1F
100
AcDbEntity
  8
Bemaßungen_TC_020513_DIN_
 62
     7
100
AcDbPoint
 10
255.9578251735703
 20
235.7135836700161
 30
0.0
  0
POINT
  5
C1
330
1F
100
AcDbEntity
  8
Bemaßungen_TC_020513_DIN_
 62
     7
100
AcDbPoint
 10
148.9578251735703
 20
235.7135836700161
 30
0.0
  0
POINT
  5
C2
330
1F
100
AcDbEntity
  8
Bemaßungen_TC_020513_DIN_
 62
     7
100
AcDbPoint
 10
354.3193982010093
 20
295.213583670016
 30
0.0
  0
POINT
  5
C3
330
1F
100
AcDbEntity
  8
Bemaßungen_TC_020513_DIN_
 62
     7
100
AcDbPoint
 10
447.5033481727274
 20
220.7135836700161
 30
0.0
  0
POINT
  5
C4
330
1F
100
AcDbEntity
  8
Bemaßungen_TC_020513_DIN_
 62
     7
100
AcDbPoint
 10
260.9578251735703
 20
180.551583670016
 30
0.0
  0
POINT
  5
C5
330
1F
100
AcDbEntity
  8
Bemaßungen_TC_020513_DIN_
 62
     7
100
AcDbPoint
 10
260.9578251735703
 20
209.6555836700161
 30
0.0
  0
LINE
  5
37E
330
1F
100
AcDbEntity
  8
Mittellinie_TC_020513_DIN_
  6
CHAIN
 62
     7
100
AcDbLine
 10
260.7078251735703
 20
278.213583670016
 30
0.0
 11
242.7078251735703
 21
278.213583670016
 31
0.0
  0
LINE
  5
37F
330
1F
100
AcDbEntity
  8
Mittellinie_TC_020513_DIN_
  6
CHAIN
 62
     7
100
AcDbLine
 10
162.2078251735703
 20
278.213583670016
 30
0.0
 11
144.2078251735703
 21
278.213583670016
 31
0.0
  0
LINE
  5
380
330
1F
100
AcDbEntity
  8
Mittellinie_TC_020513_DIN_
  6
CHAIN
 62
     7
100
AcDbLine
 10
202.4578251735703
 20
304.771095366104
 30
0.0
 11
202.4578251735703
 21
172.4315704535811
 31
0.0
  0
LINE
  5
381
330
1F
100
AcDbEntity
  8
Mittellinie_TC_020513_DIN_
  6
CHAIN
 62
     7
100
AcDbLine
 10
244.2978251735704
 20
231.7135836700161
 30
0.0
 11
257.5578251735703
 21
231.7135836700161
 31
0.0
  0
LINE
  5
382
330
1F
100
AcDbEntity
  8
Mittellinie_TC_020513_DIN_
  6
CHAIN
 62
     7
100
AcDbLine
 10
147.3578251735703
 20
231.7135836700161
 30
0.0
 11
160.6178251735703
 21
231.7135836700161
 31
0.0
  0
LINE
  5
383
330
1F
100
AcDbEntity
  8
Mittellinie_TC_020513_DIN_
  6
CHAIN
 62
     7
100
AcDbLine
 10
138.9578251735703
 20
195.103583670016
 30
0.0
 11
161.9578251735703
 21
195.103583670016
 31
0.0
  0
LINE
  5
384
330
1F
100
AcDbEntity
  8
Mittellinie_TC_020513_DIN_
  6
CHAIN
 62
     7
100
AcDbLine
 10
149.9578251735703
 20
170.7135836700161
 30
0.0
 11
149.9578251735703
 21
184.7135836700161
 31
0.0
  0
LINE
  5
385
330
1F
100
AcDbEntity
  8
Mittellinie_TC_020513_DIN_
  6
CHAIN
 62
     7
100
AcDbLine
 10
254.9578251735703
 20
170.7135836700161
 30
0.0
 11
254.9578251735703
 21
184.7135836700161
 31
0.0
  0
LINE
  5
386
330
1F
100
AcDbEntity
  8
Mittellinie_TC_020513_DIN_
  6
CHAIN
 62
     7
100
AcDbLine
 10
242.9578251735703
 20
195.103583670016
 30
0.0
 11
265.9578251735703
 21
195.103583670016
 31
0.0
  0
LINE
  5
387
330
1F
100
AcDbEntity
  8
Mittellinie_TC_020513_DIN_
  6
CHAIN
 62
     7
100
AcDbLine
 10
424.0693982010063
 20
170.7135836700161
 30
0.0
 11
424.0693982010063
 21
184.7135836700161
 31
0.0
  0
LINE
  5
388
330
1F
100
AcDbEntity
  8
Mittellinie_TC_020513_DIN_
  6
CHAIN
 62
     7
100
AcDbLine
 10
379.0693982010063
 20
170.7135836700161
 30
0.0
 11
379.0693982010063
 21
184.7135836700161
 31
0.0
  0
LINE
  5
389
330
1F
100
AcDbEntity
  8
Mittelpunktmarkierung_TC_020513_DIN_
  6
CHAIN
 62
     7
100
AcDbLine
 10
358.8193982010063
 20
287.713583670016
 30
0.0
 11
358.8193982010063
 21
268.713583670016
 31
0.0
  0
LINE
  5
38A
330
1F
100
AcDbEntity
  8
Mittelpunktmarkierung_TC_020513_DIN_
  6
CHAIN
 62
     7
100
AcDbLine
 10
368.3193982010063
 20
278.213583670016
 30
0.0
 11
349.3193982010063
 21
278.213583670016
 31
0.0
  0
LINE
  5
38B
330
1F
100
AcDbEntity
  8
Mittelpunktmarkierung_TC_020513_DIN_
  6
CHAIN
 62
     7
100
AcDbLine
 10
365.8193982010193
 20
248.7135836700161
 30
0.0
 11
365.8193982010193
 21
234.7135836700161
 31
0.0
  0
LINE
  5
38C
330
1F
100
AcDbEntity
  8
Mittelpunktmarkierung_TC_020513_DIN_
  6
CHAIN
 62
     7
100
AcDbLine
 10
365.8193982010193
 20
241.7135836700161
 30
0.0
 11
358.8193982010193
 21
241.7135836700161
 31
0.0
  0
LINE
  5
38D
330
1F
100
AcDbEntity
  8
Mittelpunktmarkierung_TC_020513_DIN_
  6
CHAIN
 62
     7
100
AcDbLine
 10
401.5693982010063
 20
241.4135836700161
 30
0.0
 11
401.5693982010063
 21
222.0135836700161
 31
0.0
  0
LINE
  5
38E
330
1F
100
AcDbEntity
  8
Mittelpunktmarkierung_TC_020513_DIN_
  6
CHAIN
 62
     7
100
AcDbLine
 10
411.2693982010063
 20
231.7135836700161
 30
0.0
 11
391.8693982010065
 21
231.7135836700161
 31
0.0
  0
LINE
  5
38F
330
1F
100
AcDbEntity
  8
Mittelpunktmarkierung_TC_020513_DIN_
  6
CHAIN
 62
     7
100
AcDbLine
 10
398.5693982010072
 20
227.4635836700161
 30
0.0
 11
398.5693982010072
 21
213.9635836700161
 31
0.0
  0
LINE
  5
390
330
1F
100
AcDbEntity
  8
Mittelpunktmarkierung_TC_020513_DIN_
  6
CHAIN
 62
     7
100
AcDbLine
 10
405.3193982010072
 20
220.7135836700161
 30
0.0
 11
391.8193982010072
 21
220.7135836700161
 31
0.0
  0
LINE
  5
391
330
1F
100
AcDbEntity
  8
Mittelpunktmarkierung_TC_020513_DIN_
  6
CHAIN
 62
     7
100
AcDbLine
 10
401.5693982010354
 20
214.6555836700161
 30
0.0
 11
401.5693982010354
 21
175.551583670016
 31
0.0
  0
LINE
  5
392
330
1F
100
AcDbEntity
  8
Mittelpunktmarkierung_TC_020513_DIN_
  6
CHAIN
 62
     7
100
AcDbLine
 10
421.1213982010353
 20
195.103583670016
 30
0.0
 11
382.0173982010352
 21
195.103583670016
 31
0.0
  0
LINE
  5
393
330
1F
100
AcDbEntity
  8
Sichtbare_Kanten_TC_020513_DIN_
  6
Continuous
 62
     7
100
AcDbLine
 10
360.8193982010193
 20
237.7135836700161
 30
0.0
 11
361.8193982010193
 21
237.7135836700161
 31
0.0
  0
LINE
  5
394
330
1F
100
AcDbEntity
  8
Sichtbare_Kanten_TC_020513_DIN_
  6
Continuous
 62
     7
100
AcDbLine
 10
369.8193982010204
 20
244.7135836700161
 30
0.0
 11
369.8193982010204
 21
246.0173105941951
 31
0.0
  0
LINE
  5
395
330
1F
100
AcDbEntity
  8
Sichtbare_Kanten_TC_020513_DIN_
  6
Continuous
 62
     7
100
AcDbLine
 10
369.3803328727223
 20
246.513583670016
 30
0.0
 11
365.3193982010204
 21
247.012203750536
 31
0.0
  0
LINE
  5
396
330
1F
100
AcDbEntity
  8
Sichtbare_Kanten_TC_020513_DIN_
  6
Continuous
 62
     7
100
AcDbLine
 10
354.7789925187243
 20
258.3721790714171
 30
0.0
 11
359.8503535511453
 21
238.4666981367211
 31
0.0
  0
LINE
  5
397
330
1F
100
AcDbEntity
  8
Sichtbare_Kanten_TC_020513_DIN_
  6
Continuous
 62
     7
100
AcDbLine
 10
365.3193982010193
 20
255.213583670016
 30
0.0
 11
365.3193982010193
 21
246.004693925077
 31
0.0
  0
LINE
  5
398
330
1F
100
AcDbEntity
  8
Sichtbare_Kanten_TC_020513_DIN_
  6
Continuous
 62
     7
100
AcDbLine
 10
367.8193982010083
 20
261.213583670016
 30
0.0
 11
367.8193982010095
 21
255.213583670016
 31
0.0
  0
LINE
  5
399
330
1F
100
AcDbEntity
  8
Sichtbare_Kanten_TC_020513_DIN_
  6
Continuous
 62
     7
100
AcDbLine
 10
367.8193982010095
 20
255.213583670016
 30
0.0
 11
363.8193982010093
 21
255.213583670016
 31
0.0
  0
LINE
  5
39A
330
1F
100
AcDbEntity
  8
Sichtbare_Kanten_TC_020513_DIN_
  6
Continuous
 62
     7
100
AcDbLine
 10
367.8193982010083
 20
261.213583670016
 30
0.0
 11
367.8193982010083
 21
295.213583670016
 31
0.0
  0
LINE
  5
39B
330
1F
100
AcDbEntity
  8
Sichtbare_Kanten_TC_020513_DIN_
  6
Continuous
 62
     7
100
AcDbLine
 10
367.8193982010095
 20
301.213583670016
 30
0.0
 11
367.8193982010083
 21
295.213583670016
 31
0.0
  0
LINE
  5
39C
330
1F
100
AcDbEntity
  8
Sichtbare_Kanten_TC_020513_DIN_
  6
Continuous
 62
     7
100
AcDbLine
 10
363.8193982010083
 20
295.213583670016
 30
0.0
 11
363.8193982010093
 21
301.213583670016
 31
0.0
  0
LINE
  5
39D
330
1F
100
AcDbEntity
  8
Sichtbare_Kanten_TC_020513_DIN_
  6
Continuous
 62
     7
100
AcDbLine
 10
363.8193982010083
 20
295.213583670016
 30
0.0
 11
363.8193982010083
 21
261.213583670016
 31
0.0
  0
LINE
  5
39E
330
1F
100
AcDbEntity
  8
Sichtbare_Kanten_TC_020513_DIN_
  6
Continuous
 62
     7
100
AcDbLine
 10
363.8193982010093
 20
255.213583670016
 30
0.0
 11
363.8193982010083
 21
261.213583670016
 31
0.0
  0
LINE
  5
39F
330
1F
100
AcDbEntity
  8
Sichtbare_Kanten_TC_020513_DIN_
  6
Continuous
 62
     7
100
AcDbLine
 10
367.8193982010095
 20
301.213583670016
 30
0.0
 11
363.8193982010093
 21
301.213583670016
 31
0.0
  0
LINE
  5
3A0
330
1F
100
AcDbEntity
  8
Sichtbare_Kanten_TC_020513_DIN_
  6
Continuous
 62
     7
100
AcDbLine
 10
363.8193982010093
 20
298.213583670016
 30
0.0
 11
355.3193982010093
 21
298.213583670016
 31
0.0
  0
LINE
  5
3A1
330
1F
100
AcDbEntity
  8
Sichtbare_Kanten_TC_020513_DIN_
  6
Continuous
 62
     7
100
AcDbLine
 10
363.8193982010093
 20
258.213583670016
 30
0.0
 11
355.3193982010093
 21
258.213583670016
 31
0.0
  0
LINE
  5
3A2
330
1F
100
AcDbEntity
  8
Sichtbare_Kanten_TC_020513_DIN_
  6
Continuous
 62
     7
100
AcDbLine
 10
362.8193982010193
 20
303.213583670016
 30
0.0
 11
362.8193982010193
 21
298.213583670016
 31
0.0
  0
LINE
  5
3A3
330
1F
100
AcDbEntity
  8
Sichtbare_Kanten_TC_020513_DIN_
  6
Continuous
 62
     7
100
AcDbLine
 10
365.8193982010193
 20
303.213583670016
 30
0.0
 11
362.8193982010193
 21
303.213583670016
 31
0.0
  0
LINE
  5
3A4
330
1F
100
AcDbEntity
  8
Sichtbare_Kanten_TC_020513_DIN_
  6
Continuous
 62
     7
100
AcDbLine
 10
365.8193982010193
 20
303.213583670016
 30
0.0
 11
365.8193982010193
 21
301.213583670016
 31
0.0
  0
LINE
  5
3A5
330
1F
100
AcDbEntity
  8
Sichtbare_Kanten_TC_020513_DIN_
  6
Continuous
 62
     7
100
AcDbLine
 10
354.3193982010093
 20
259.213583670016
 30
0.0
 11
354.3193982010093
 21
261.213583670016
 31
0.0
  0
LINE
  5
3A6
330
1F
100
AcDbEntity
  8
Sichtbare_Kanten_TC_020513_DIN_
  6
Continuous
 62
     7
100
AcDbLine
 10
354.3193982010093
 20
295.213583670016
 30
0.0
 11
354.3193982010093
 21
278.213583670016
 31
0.0
  0
LINE
  5
3A7
330
1F
100
AcDbEntity
  8
Sichtbare_Kanten_TC_020513_DIN_
  6
Continuous
 62
     7
100
AcDbLine
 10
354.3193982010093
 20
295.213583670016
 30
0.0
 11
354.3193982010093
 21
297.213583670016
 31
0.0
  0
LINE
  5
3A8
330
1F
100
AcDbEntity
  8
Sichtbare_Kanten_TC_020513_DIN_
  6
Continuous
 62
     7
100
AcDbLine
 10
354.3193982010093
 20
278.213583670016
 30
0.0
 11
354.3193982010093
 21
261.213583670016
 31
0.0
  0
LINE
  5
3A9
330
1F
100
AcDbEntity
  8
Sichtbare_Kanten_TC_020513_DIN_
  6
Continuous
 62
     7
100
AcDbLine
 10
431.1360355036023
 20
250.2912063076021
 30
0.0
 11
431.1360355036023
 21
249.507207437883
 31
0.0
  0
LINE
  5
3AA
330
1F
100
AcDbEntity
  8
Sichtbare_Kanten_TC_020513_DIN_
  6
Continuous
 62
     7
100
AcDbLine
 10
431.1360355036023
 20
249.507207437883
 30
0.0
 11
431.1360355036023
 21
248.891206307602
 31
0.0
  0
LINE
  5
3AB
330
1F
100
AcDbEntity
  8
Sichtbare_Kanten_TC_020513_DIN_
  6
Continuous
 62
     7
100
AcDbLine
 10
399.9693982010064
 20
221.4759287550081
 30
0.0
 11
399.9693982010073
 21
221.5759287550081
 31
0.0
  0
LINE
  5
3AC
330
1F
100
AcDbEntity
  8
Sichtbare_Kanten_TC_020513_DIN_
  6
Continuous
 62
     7
100
AcDbLine
 10
397.0693982010072
 20
221.5759287550081
 30
0.0
 11
397.0693982010063
 21
221.4759287550081
 31
0.0
  0
LINE
  5
3AD
330
1F
100
AcDbEntity
  8
Sichtbare_Kanten_TC_020513_DIN_
  6
Continuous
 62
     7
100
AcDbLine
 10
428.3360355036024
 20
237.5143919765131
 30
0.0
 11
429.1200316506594
 21
237.5143919765131
 31
0.0
  0
LINE
  5
3AE
330
1F
100
AcDbEntity
  8
Sichtbare_Kanten_TC_020513_DIN_
  6
Continuous
 62
     7
100
AcDbLine
 10
429.1200316506594
 20
237.5143919765131
 30
0.0
 11
429.7360355036022
 21
237.5143919765131
 31
0.0
  0
LINE
  5
3AF
330
1F
100
AcDbEntity
  8
Sichtbare_Kanten_TC_020513_DIN_
  6
Continuous
 62
     7
100
AcDbLine
 10
429.8672046017513
 20
236.922726410076
 30
0.0
 11
429.3089155129902
 21
236.662391932523
 31
0.0
  0
LINE
  5
3B0
330
1F
100
AcDbEntity
  8
Sichtbare_Kanten_TC_020513_DIN_
  6
Continuous
 62
     7
100
AcDbLine
 10
429.3089155129902
 20
236.662391932523
 30
0.0
 11
428.5983736998993
 21
236.3310608436391
 31
0.0
  0
LINE
  5
3B1
330
1F
100
AcDbEntity
  8
Sichtbare_Kanten_TC_020513_DIN_
  6
Continuous
 62
     7
100
AcDbLine
 10
432.4358002623982
 20
231.414355239827
 30
0.0
 11
429.8672046017513
 21
236.922726410076
 31
0.0
  0
LINE
  5
3B2
330
1F
100
AcDbEntity
  8
Sichtbare_Kanten_TC_020513_DIN_
  6
Continuous
 62
     7
100
AcDbLine
 10
428.5983736998993
 20
236.3310608436391
 30
0.0
 11
431.1669693605473
 21
230.82268967339
 31
0.0
  0
LINE
  5
3B3
330
1F
100
AcDbEntity
  8
Sichtbare_Kanten_TC_020513_DIN_
  6
Continuous
 62
     7
100
AcDbLine
 10
432.4358002623982
 20
231.414355239827
 30
0.0
 11
433.0622734759874
 21
230.070879097773
 31
0.0
  0
LINE
  5
3B4
330
1F
100
AcDbEntity
  8
Sichtbare_Kanten_TC_020513_DIN_
  6
Continuous
 62
     7
100
AcDbLine
 10
433.0622734759874
 20
230.070879097773
 30
0.0
 11
431.7934425741363
 21
229.4792135313361
 31
0.0
  0
LINE
  5
3B5
330
1F
100
AcDbEntity
  8
Sichtbare_Kanten_TC_020513_DIN_
  6
Continuous
 62
     7
100
AcDbLine
 10
431.7934425741363
 20
229.4792135313361
 30
0.0
 11
431.1669693605473
 21
230.82268967339
 31
0.0
  0
LINE
  5
3B6
330
1F
100
AcDbEntity
  8
Sichtbare_Kanten_TC_020513_DIN_
  6
Continuous
 62
     7
100
AcDbLine
 10
397.0693982010063
 20
221.4759287550081
 30
0.0
 11
397.0693982010063
 21
220.0759287550081
 31
0.0
  0
LINE
  5
3B7
330
1F
100
AcDbEntity
  8
Sichtbare_Kanten_TC_020513_DIN_
  6
Continuous
 62
     7
100
AcDbLine
 10
397.0693982010063
 20
221.4759287550081
 30
0.0
 11
397.5693982010063
 21
221.4759287550081
 31
0.0
  0
LINE
  5
3B8
330
1F
100
AcDbEntity
  8
Sichtbare_Kanten_TC_020513_DIN_
  6
Continuous
 62
     7
100
AcDbLine
 10
397.5693982010063
 20
220.0759287550081
 30
0.0
 11
397.0693982010063
 21
220.0759287550081
 31
0.0
  0
LINE
  5
3B9
330
1F
100
AcDbEntity
  8
Sichtbare_Kanten_TC_020513_DIN_
  6
Continuous
 62
     7
100
AcDbLine
 10
399.4693982010064
 20
221.4759287550081
 30
0.0
 11
397.5693982010063
 21
221.4759287550081
 31
0.0
  0
LINE
  5
3BA
330
1F
100
AcDbEntity
  8
Sichtbare_Kanten_TC_020513_DIN_
  6
Continuous
 62
     7
100
AcDbLine
 10
397.5693982010063
 20
220.0759287550081
 30
0.0
 11
399.4693982010064
 21
220.0759287550081
 31
0.0
  0
LINE
  5
3BB
330
1F
100
AcDbEntity
  8
Sichtbare_Kanten_TC_020513_DIN_
  6
Continuous
 62
     7
100
AcDbLine
 10
399.4693982010064
 20
221.4759287550081
 30
0.0
 11
399.9693982010064
 21
221.4759287550081
 31
0.0
  0
LINE
  5
3BC
330
1F
100
AcDbEntity
  8
Sichtbare_Kanten_TC_020513_DIN_
  6
Continuous
 62
     7
100
AcDbLine
 10
399.9693982010064
 20
220.0759287550081
 30
0.0
 11
399.4693982010064
 21
220.0759287550081
 31
0.0
  0
LINE
  5
3BD
330
1F
100
AcDbEntity
  8
Sichtbare_Kanten_TC_020513_DIN_
  6
Continuous
 62
     7
100
AcDbLine
 10
399.9693982010064
 20
221.4759287550081
 30
0.0
 11
399.9693982010064
 21
220.0759287550081
 31
0.0
  0
LINE
  5
3BE
330
1F
100
AcDbEntity
  8
Sichtbare_Kanten_TC_020513_DIN_
  6
Continuous
 62
     7
100
AcDbLine
 10
436.0703108963984
 20
250.2912063076021
 30
0.0
 11
431.1360355036023
 21
250.2912063076021
 31
0.0
  0
LINE
  5
3BF
330
1F
100
AcDbEntity
  8
Sichtbare_Kanten_TC_020513_DIN_
  6
Continuous
 62
     7
100
AcDbLine
 10
431.1360355036023
 20
248.891206307602
 30
0.0
 11
436.0703108963984
 21
248.891206307602
 31
0.0
  0
LINE
  5
3C0
330
1F
100
AcDbEntity
  8
Sichtbare_Kanten_TC_020513_DIN_
  6
Continuous
 62
     7
100
AcDbLine
 10
437.5526728061942
 20
248.891206307602
 30
0.0
 11
437.5526728061942
 21
250.2912063076021
 31
0.0
  0
LINE
  5
3C1
330
1F
100
AcDbEntity
  8
Sichtbare_Kanten_TC_020513_DIN_
  6
Continuous
 62
     7
100
AcDbLine
 10
437.5526728061942
 20
248.891206307602
 30
0.0
 11
436.0703108963984
 21
248.891206307602
 31
0.0
  0
LINE
  5
3C2
330
1F
100
AcDbEntity
  8
Sichtbare_Kanten_TC_020513_DIN_
  6
Continuous
 62
     7
100
AcDbLine
 10
436.0703108963984
 20
250.2912063076021
 30
0.0
 11
437.5526728061942
 21
250.2912063076021
 31
0.0
  0
LINE
  5
3C3
330
1F
100
AcDbEntity
  8
Sichtbare_Kanten_TC_020513_DIN_
  6
Continuous
 62
     7
100
AcDbLine
 10
428.3360355036024
 20
239.0745690050111
 30
0.0
 11
428.3360355036024
 21
238.889273766286
 31
0.0
  0
LINE
  5
3C4
330
1F
100
AcDbEntity
  8
Sichtbare_Kanten_TC_020513_DIN_
  6
Continuous
 62
     7
100
AcDbLine
 10
428.3360355036024
 20
238.889273766286
 30
0.0
 11
428.3360355036024
 21
237.5143919765131
 31
0.0
  0
LINE
  5
3C5
330
1F
100
AcDbEntity
  8
Sichtbare_Kanten_TC_020513_DIN_
  6
Continuous
 62
     7
100
AcDbLine
 10
397.0693982010072
 20
221.5759287550081
 30
0.0
 11
397.0693982010072
 21
221.6149714888821
 31
0.0
  0
LINE
  5
3C6
330
1F
100
AcDbEntity
  8
Sichtbare_Kanten_TC_020513_DIN_
  6
Continuous
 62
     7
100
AcDbLine
 10
404.5693982010072
 20
238.0381389903521
 30
0.0
 11
404.5693982010072
 21
239.7135836700161
 31
0.0
  0
LINE
  5
3C7
330
1F
100
AcDbEntity
  8
Sichtbare_Kanten_TC_020513_DIN_
  6
Continuous
 62
     7
100
AcDbLine
 10
404.5693982010072
 20
239.7135836700161
 30
0.0
 11
406.7982761373434
 21
242.9287182007141
 31
0.0
  0
LINE
  5
3C8
330
1F
100
AcDbEntity
  8
Sichtbare_Kanten_TC_020513_DIN_
  6
Continuous
 62
     7
100
AcDbLine
 10
406.8564001566773
 20
243.3867939370301
 30
0.0
 11
405.7907551481834
 21
246.272476073143
 31
0.0
  0
LINE
  5
3C9
330
1F
100
AcDbEntity
  8
Sichtbare_Kanten_TC_020513_DIN_
  6
Continuous
 62
     7
100
AcDbLine
 10
397.3091165201794
 20
256.713583670016
 30
0.0
 11
405.3091165201794
 21
256.713583670016
 31
0.0
  0
LINE
  5
3CA
330
1F
100
AcDbEntity
  8
Sichtbare_Kanten_TC_020513_DIN_
  6
Continuous
 62
     7
100
AcDbLine
 10
423.5948437274363
 20
251.557044938806
 30
0.0
 11
426.9360355035984
 21
249.509825254207
 31
0.0
  0
LINE
  5
3CB
330
1F
100
AcDbEntity
  8
Sichtbare_Kanten_TC_020513_DIN_
  6
Continuous
 62
     7
100
AcDbLine
 10
426.9360355035984
 20
239.0745690050111
 30
0.0
 11
425.5693982010072
 21
239.0745690050111
 31
0.0
  0
LINE
  5
3CC
330
1F
100
AcDbEntity
  8
Sichtbare_Kanten_TC_020513_DIN_
  6
Continuous
 62
     7
100
AcDbLine
 10
424.7850986748223
 20
239.454186660625
 30
0.0
 11
421.9615479641003
 21
243.0237748422081
 31
0.0
  0
LINE
  5
3CD
330
1F
100
AcDbEntity
  8
Sichtbare_Kanten_TC_020513_DIN_
  6
Continuous
 62
     7
100
AcDbLine
 10
421.2592070288152
 20
243.105733433108
 30
0.0
 11
411.1454501395803
 21
235.1057334331091
 31
0.0
  0
LINE
  5
3CE
330
1F
100
AcDbEntity
  8
Sichtbare_Kanten_TC_020513_DIN_
  6
Continuous
 62
     7
100
AcDbLine
 10
410.9575439627273
 20
234.7571615413901
 30
0.0
 11
410.8304436074014
 21
233.304397832319
 31
0.0
  0
LINE
  5
3CF
330
1F
100
AcDbEntity
  8
Sichtbare_Kanten_TC_020513_DIN_
  6
Continuous
 62
     7
100
AcDbLine
 10
400.0055388626423
 20
221.7135836700161
 30
0.0
 11
399.9693982010073
 21
221.7135836700161
 31
0.0
  0
LINE
  5
3D0
330
1F
100
AcDbEntity
  8
Sichtbare_Kanten_TC_020513_DIN_
  6
Continuous
 62
     7
100
AcDbLine
 10
399.9693982010073
 20
221.7135836700161
 30
0.0
 11
399.9693982010073
 21
221.5759287550081
 31
0.0
  0
LINE
  5
3D1
330
1F
100
AcDbEntity
  8
Sichtbare_Kanten_TC_020513_DIN_
  6
Continuous
 62
     7
100
AcDbLine
 10
429.7360355036022
 20
237.5143919765131
 30
0.0
 11
429.7360355036022
 21
238.889273766286
 31
0.0
  0
LINE
  5
3D2
330
1F
100
AcDbEntity
  8
Sichtbare_Kanten_TC_020513_DIN_
  6
Continuous
 62
     7
100
AcDbLine
 10
429.7360355036022
 20
238.889273766286
 30
0.0
 11
429.7360355035993
 21
239.0745690050111
 31
0.0
  0
LINE
  5
3D3
330
1F
100
AcDbEntity
  8
Sichtbare_Kanten_TC_020513_DIN_
  6
Continuous
 62
     7
100
AcDbLine
 10
428.4285341511842
 20
249.0745690050111
 30
0.0
 11
429.7360355035993
 21
249.0745690050111
 31
0.0
  0
LINE
  5
3D4
330
1F
100
AcDbEntity
  8
Sichtbare_Kanten_TC_020513_DIN_
  6
Continuous
 62
     7
100
AcDbLine
 10
429.7360355035993
 20
239.0745690050111
 30
0.0
 11
426.9360355035984
 21
239.0745690050111
 31
0.0
  0
LINE
  5
3D5
330
1F
100
AcDbEntity
  8
Sichtbare_Kanten_TC_020513_DIN_
  6
Continuous
 62
     7
100
AcDbLine
 10
429.7360355035993
 20
249.0745690050111
 30
0.0
 11
429.7360355035993
 21
239.0745690050111
 31
0.0
  0
LINE
  5
3D6
330
1F
100
AcDbEntity
  8
Sichtbare_Kanten_TC_020513_DIN_
  6
Continuous
 62
     7
100
AcDbLine
 10
372.8193982010172
 20
215.2135836700161
 30
0.0
 11
372.8193982010172
 21
234.2135836700161
 31
0.0
  0
LINE
  5
3D7
330
1F
100
AcDbEntity
  8
Sichtbare_Kanten_TC_020513_DIN_
  6
Continuous
 62
     7
100
AcDbLine
 10
377.3193982010195
 20
215.2135836700161
 30
0.0
 11
372.8193982010172
 21
215.2135836700161
 31
0.0
  0
LINE
  5
3D8
330
1F
100
AcDbEntity
  8
Sichtbare_Kanten_TC_020513_DIN_
  6
Continuous
 62
     7
100
AcDbLine
 10
379.3193982010213
 20
215.2135836700161
 30
0.0
 11
377.3193982010195
 21
215.2135836700161
 31
0.0
  0
LINE
  5
3D9
330
1F
100
AcDbEntity
  8
Sichtbare_Kanten_TC_020513_DIN_
  6
Continuous
 62
     7
100
AcDbLine
 10
372.8193982010172
 20
234.2135836700161
 30
0.0
 11
379.3193982010213
 21
234.2135836700161
 31
0.0
  0
LINE
  5
3DA
330
1F
100
AcDbEntity
  8
Sichtbare_Kanten_TC_020513_DIN_
  6
Continuous
 62
     7
100
AcDbLine
 10
377.3193982010172
 20
213.2135836700161
 30
0.0
 11
362.8193982010173
 21
213.2135836700161
 31
0.0
  0
LINE
  5
3DB
330
1F
100
AcDbEntity
  8
Sichtbare_Kanten_TC_020513_DIN_
  6
Continuous
 62
     7
100
AcDbLine
 10
370.8193982010172
 20
244.7135836700161
 30
0.0
 11
372.8193982010172
 21
234.2135836700161
 31
0.0
  0
LINE
  5
3DC
330
1F
100
AcDbEntity
  8
Sichtbare_Kanten_TC_020513_DIN_
  6
Continuous
 62
     7
100
AcDbLine
 10
362.8193982010173
 20
244.7135836700161
 30
0.0
 11
370.8193982010172
 21
244.7135836700161
 31
0.0
  0
LINE
  5
3DD
330
1F
100
AcDbEntity
  8
Sichtbare_Kanten_TC_020513_DIN_
  6
Continuous
 62
     7
100
AcDbLine
 10
361.8193982010173
 20
214.2135836700161
 30
0.0
 11
361.8193982010173
 21
243.7135836700161
 31
0.0
  0
LINE
  5
3DE
330
1F
100
AcDbEntity
  8
Sichtbare_Kanten_TC_020513_DIN_
  6
Continuous
 62
     7
100
AcDbLine
 10
377.3193982010195
 20
215.2135836700161
 30
0.0
 11
377.3193982010172
 21
213.2135836700161
 31
0.0
  0
LINE
  5
3DF
330
1F
100
AcDbEntity
  8
Sichtbare_Kanten_TC_020513_DIN_
  6
Continuous
 62
     7
100
AcDbLine
 10
377.3193982010195
 20
215.2135836700161
 30
0.0
 11
377.3193982010213
 21
223.2135836700161
 31
0.0
  0
LINE
  5
3E0
330
1F
100
AcDbEntity
  8
Sichtbare_Kanten_TC_020513_DIN_
  6
Continuous
 62
     7
100
AcDbLine
 10
379.5193982010102
 20
238.7135836700161
 30
0.0
 11
379.5193982010102
 21
234.7135836700161
 31
0.0
  0
LINE
  5
3E1
330
1F
100
AcDbEntity
  8
Sichtbare_Kanten_TC_020513_DIN_
  6
Continuous
 62
     7
100
AcDbLine
 10
423.6193982010103
 20
238.7135836700161
 30
0.0
 11
423.6193982010103
 21
234.7135836700161
 31
0.0
  0
LINE
  5
3E2
330
1F
100
AcDbEntity
  8
Sichtbare_Kanten_TC_020513_DIN_
  6
Continuous
 62
     7
100
AcDbLine
 10
423.6193982010103
 20
238.7135836700161
 30
0.0
 11
417.8193982010083
 21
238.7135836700161
 31
0.0
  0
LINE
  5
3E3
330
1F
100
AcDbEntity
  8
Sichtbare_Kanten_TC_020513_DIN_
  6
Continuous
 62
     7
100
AcDbLine
 10
415.7065651631873
 20
238.7135836700161
 30
0.0
 11
417.8193982010083
 21
238.7135836700161
 31
0.0
  0
LINE
  5
3E4
330
1F
100
AcDbEntity
  8
Sichtbare_Kanten_TC_020513_DIN_
  6
Continuous
 62
     7
100
AcDbLine
 10
385.3193982010083
 20
238.7135836700161
 30
0.0
 11
404.5693982010083
 21
238.7135836700161
 31
0.0
  0
LINE
  5
3E5
330
1F
100
AcDbEntity
  8
Sichtbare_Kanten_TC_020513_DIN_
  6
Continuous
 62
     7
100
AcDbLine
 10
385.3193982010083
 20
238.7135836700161
 30
0.0
 11
379.5193982010102
 21
238.7135836700161
 31
0.0
  0
LINE
  5
3E6
330
1F
100
AcDbEntity
  8
Sichtbare_Kanten_TC_020513_DIN_
  6
Continuous
 62
     7
100
AcDbLine
 10
417.8193982010083
 20
234.7135836700161
 30
0.0
 11
423.8193982010104
 21
234.7135836700161
 31
0.0
  0
LINE
  5
3E7
330
1F
100
AcDbEntity
  8
Sichtbare_Kanten_TC_020513_DIN_
  6
Continuous
 62
     7
100
AcDbLine
 10
395.2448428806712
 20
234.7135836700161
 30
0.0
 11
385.3193982010083
 21
234.7135836700161
 31
0.0
  0
LINE
  5
3E8
330
1F
100
AcDbEntity
  8
Sichtbare_Kanten_TC_020513_DIN_
  6
Continuous
 62
     7
100
AcDbLine
 10
417.8193982010083
 20
234.7135836700161
 30
0.0
 11
410.9537313930024
 21
234.7135836700161
 31
0.0
  0
LINE
  5
3E9
330
1F
100
AcDbEntity
  8
Sichtbare_Kanten_TC_020513_DIN_
  6
Continuous
 62
     7
100
AcDbLine
 10
379.3193982010104
 20
234.7135836700161
 30
0.0
 11
385.3193982010083
 21
234.7135836700161
 31
0.0
  0
LINE
  5
3EA
330
1F
100
AcDbEntity
  8
Sichtbare_Kanten_TC_020513_DIN_
  6
Continuous
 62
     7
100
AcDbLine
 10
379.3193982010104
 20
179.7135836700161
 30
0.0
 11
379.3193982010104
 21
234.7135836700161
 31
0.0
  0
LINE
  5
3EB
330
1F
100
AcDbEntity
  8
Sichtbare_Kanten_TC_020513_DIN_
  6
Continuous
 62
     7
100
AcDbLine
 10
423.8193982010104
 20
232.7135836700161
 30
0.0
 11
423.8193982010104
 21
234.7135836700161
 31
0.0
  0
LINE
  5
3EC
330
1F
100
AcDbEntity
  8
Sichtbare_Kanten_TC_020513_DIN_
  6
Continuous
 62
     7
100
AcDbLine
 10
423.8193982010104
 20
179.7135836700161
 30
0.0
 11
423.8193982010104
 21
225.7135836700161
 31
0.0
  0
LINE
  5
3ED
330
1F
100
AcDbEntity
  8
Sichtbare_Kanten_TC_020513_DIN_
  6
Continuous
 62
     7
100
AcDbLine
 10
386.4293982010053
 20
179.7135836700161
 30
0.0
 11
386.4293982010044
 21
195.103583670016
 31
0.0
  0
LINE
  5
3EE
330
1F
100
AcDbEntity
  8
Sichtbare_Kanten_TC_020513_DIN_
  6
Continuous
 62
     7
100
AcDbLine
 10
416.7093982010052
 20
195.103583670016
 30
0.0
 11
416.7093982010052
 21
179.7135836700161
 31
0.0
  0
LINE
  5
3EF
330
1F
100
AcDbEntity
  8
Sichtbare_Kanten_TC_020513_DIN_
  6
Continuous
 62
     7
100
AcDbLine
 10
373.0693982010045
 20
175.7135836700161
 30
0.0
 11
373.0693982010045
 21
179.7135836700161
 31
0.0
  0
LINE
  5
3F0
330
1F
100
AcDbEntity
  8
Sichtbare_Kanten_TC_020513_DIN_
  6
Continuous
 62
     7
100
AcDbLine
 10
386.4293982010053
 20
179.7135836700161
 30
0.0
 11
373.0693982010045
 21
179.7135836700161
 31
0.0
  0
LINE
  5
3F1
330
1F
100
AcDbEntity
  8
Sichtbare_Kanten_TC_020513_DIN_
  6
Continuous
 62
     7
100
AcDbLine
 10
430.0693982010045
 20
179.7135836700161
 30
0.0
 11
416.7093982010052
 21
179.7135836700161
 31
0.0
  0
LINE
  5
3F2
330
1F
100
AcDbEntity
  8
Sichtbare_Kanten_TC_020513_DIN_
  6
Continuous
 62
     7
100
AcDbLine
 10
430.0693982010045
 20
175.7135836700161
 30
0.0
 11
430.0693982010045
 21
179.7135836700161
 31
0.0
  0
LINE
  5
3F3
330
1F
100
AcDbEntity
  8
Sichtbare_Kanten_TC_020513_DIN_
  6
Continuous
 62
     7
100
AcDbLine
 10
430.0693982010045
 20
175.7135836700161
 30
0.0
 11
373.0693982010045
 21
175.7135836700161
 31
0.0
  0
LINE
  5
3F4
330
1F
100
AcDbEntity
  8
Sichtbare_Kanten_TC_020513_DIN_
  6
Continuous
 62
     7
100
AcDbLine
 10
425.2317432860033
 20
219.396946367425
 30
0.0
 11
425.2317432860033
 21
218.559291452418
 31
0.0
  0
LINE
  5
3F5
330
1F
100
AcDbEntity
  8
Sichtbare_Kanten_TC_020513_DIN_
  6
Continuous
 62
     7
100
AcDbLine
 10
425.2317432860033
 20
218.559291452418
 30
0.0
 11
423.8317432860032
 21
218.559291452418
 31
0.0
  0
LINE
  5
3F6
330
1F
100
AcDbEntity
  8
Sichtbare_Kanten_TC_020513_DIN_
  6
Continuous
 62
     7
100
AcDbLine
 10
423.8317432860032
 20
219.396946367425
 30
0.0
 11
423.8317432860032
 21
218.559291452418
 31
0.0
  0
LINE
  5
3F7
330
1F
100
AcDbEntity
  8
Sichtbare_Kanten_TC_020513_DIN_
  6
Continuous
 62
     7
100
AcDbLine
 10
425.3693982010103
 20
220.896946367425
 30
0.0
 11
425.3317432860032
 21
220.896946367425
 31
0.0
  0
LINE
  5
3F8
330
1F
100
AcDbEntity
  8
Sichtbare_Kanten_TC_020513_DIN_
  6
Continuous
 62
     7
100
AcDbLine
 10
425.3693982010074
 20
219.496946367425
 30
0.0
 11
425.3317432860032
 21
219.496946367425
 31
0.0
  0
LINE
  5
3F9
330
1F
100
AcDbEntity
  8
Sichtbare_Kanten_TC_020513_DIN_
  6
Continuous
 62
     7
100
AcDbLine
 10
413.5693982010072
 20
225.7135836700161
 30
0.0
 11
424.3693982010074
 21
225.7135836700161
 31
0.0
  0
LINE
  5
3FA
330
1F
100
AcDbEntity
  8
Sichtbare_Kanten_TC_020513_DIN_
  6
Continuous
 62
     7
100
AcDbLine
 10
424.3693982010074
 20
232.7135836700161
 30
0.0
 11
411.5693982010072
 21
232.7135836700161
 31
0.0
  0
LINE
  5
3FB
330
1F
100
AcDbEntity
  8
Sichtbare_Kanten_TC_020513_DIN_
  6
Continuous
 62
     7
100
AcDbLine
 10
394.5693982010072
 20
231.7135836700161
 30
0.0
 11
394.5693982010072
 21
218.2135836700161
 31
0.0
  0
LINE
  5
3FC
330
1F
100
AcDbEntity
  8
Sichtbare_Kanten_TC_020513_DIN_
  6
Continuous
 62
     7
100
AcDbLine
 10
432.3693982010074
 20
222.2969463674251
 30
0.0
 11
432.3693982010074
 21
224.7135836700161
 31
0.0
  0
LINE
  5
3FD
330
1F
100
AcDbEntity
  8
Sichtbare_Kanten_TC_020513_DIN_
  6
Continuous
 62
     7
100
AcDbLine
 10
432.7582870898983
 20
219.496946367425
 30
0.0
 11
432.3693982010074
 21
219.496946367425
 31
0.0
  0
LINE
  5
3FE
330
1F
100
AcDbEntity
  8
Sichtbare_Kanten_TC_020513_DIN_
  6
Continuous
 62
     7
100
AcDbLine
 10
432.7582870898983
 20
220.896946367425
 30
0.0
 11
432.3693982010092
 21
220.896946367425
 31
0.0
  0
LINE
  5
3FF
330
1F
100
AcDbEntity
  8
Sichtbare_Kanten_TC_020513_DIN_
  6
Continuous
 62
     7
100
AcDbLine
 10
435.8693982010115
 20
219.496946367425
 30
0.0
 11
435.8693982010115
 21
220.896946367425
 31
0.0
  0
LINE
  5
400
330
1F
100
AcDbEntity
  8
Sichtbare_Kanten_TC_020513_DIN_
  6
Continuous
 62
     7
100
AcDbLine
 10
432.7582870898983
 20
219.496946367425
 30
0.0
 11
435.8693982010115
 21
219.496946367425
 31
0.0
  0
LINE
  5
401
330
1F
100
AcDbEntity
  8
Sichtbare_Kanten_TC_020513_DIN_
  6
Continuous
 62
     7
100
AcDbLine
 10
432.7582870898983
 20
220.896946367425
 30
0.0
 11
435.8693982010115
 21
220.896946367425
 31
0.0
  0
LINE
  5
402
330
1F
100
AcDbEntity
  8
Sichtbare_Kanten_TC_020513_DIN_
  6
Continuous
 62
     7
100
AcDbLine
 10
425.3693982010074
 20
224.7135836700161
 30
0.0
 11
425.3693982010065
 21
222.2969463674251
 31
0.0
  0
LINE
  5
403
330
1F
100
AcDbEntity
  8
Sichtbare_Kanten_TC_020513_DIN_
  6
Continuous
 62
     7
100
AcDbLine
 10
432.3693982010074
 20
219.496946367425
 30
0.0
 11
425.3693982010074
 21
219.496946367425
 31
0.0
  0
LINE
  5
404
330
1F
100
AcDbEntity
  8
Sichtbare_Kanten_TC_020513_DIN_
  6
Continuous
 62
     7
100
AcDbLine
 10
432.3693982010074
 20
222.2969463674251
 30
0.0
 11
432.3693982010074
 21
219.496946367425
 31
0.0
  0
LINE
  5
405
330
1F
100
AcDbEntity
  8
Sichtbare_Kanten_TC_020513_DIN_
  6
Continuous
 62
     7
100
AcDbLine
 10
425.3693982010074
 20
219.496946367425
 30
0.0
 11
425.3693982010065
 21
222.2969463674251
 31
0.0
  0
LINE
  5
406
330
1F
100
AcDbEntity
  8
Sichtbare_Kanten_TC_020513_DIN_
  6
Continuous
 62
     7
100
AcDbLine
 10
370.5002671963872
 20
244.7135836700161
 30
0.0
 11
370.6456210670502
 21
246.040800388729
 31
0.0
  0
LINE
  5
407
330
1F
100
AcDbEntity
  8
Sichtbare_Kanten_TC_020513_DIN_
  6
Continuous
 62
     7
100
AcDbLine
 10
370.6456210670502
 20
246.040800388729
 30
0.0
 11
371.1426492361612
 21
245.9863669513031
 31
0.0
  0
LINE
  5
408
330
1F
100
AcDbEntity
  8
Sichtbare_Kanten_TC_020513_DIN_
  6
Continuous
 62
     7
100
AcDbLine
 10
371.1426492361612
 20
245.9863669513031
 30
0.0
 11
370.9361361510834
 21
244.1007094321851
 31
0.0
  0
LINE
  5
409
330
1F
100
AcDbEntity
  8
Sichtbare_Kanten_TC_020513_DIN_
  6
Continuous
 62
     7
100
AcDbLine
 10
193.4578251735703
 20
255.213583670016
 30
0.0
 11
193.4578251735703
 21
250.2912063076021
 31
0.0
  0
LINE
  5
40A
330
1F
100
AcDbEntity
  8
Sichtbare_Kanten_TC_020513_DIN_
  6
Continuous
 62
     7
100
AcDbLine
 10
211.4578251735703
 20
250.2912063076021
 30
0.0
 11
211.4578251735703
 21
255.213583670016
 31
0.0
  0
LINE
  5
40B
330
1F
100
AcDbEntity
  8
Sichtbare_Kanten_TC_020513_DIN_
  6
Continuous
 62
     7
100
AcDbLine
 10
250.7078251735703
 20
295.213583670016
 30
0.0
 11
250.7078251735703
 21
261.213583670016
 31
0.0
  0
LINE
  5
40C
330
1F
100
AcDbEntity
  8
Sichtbare_Kanten_TC_020513_DIN_
  6
Continuous
 62
     7
100
AcDbLine
 10
155.2078251735703
 20
261.213583670016
 30
0.0
 11
155.2078251735703
 21
295.213583670016
 31
0.0
  0
LINE
  5
40D
330
1F
100
AcDbEntity
  8
Sichtbare_Kanten_TC_020513_DIN_
  6
Continuous
 62
     7
100
AcDbLine
 10
244.7078251735703
 20
256.213583670016
 30
0.0
 11
160.2078251735703
 21
256.213583670016
 31
0.0
  0
LINE
  5
40E
330
1F
100
AcDbEntity
  8
Sichtbare_Kanten_TC_020513_DIN_
  6
Continuous
 62
     7
100
AcDbLine
 10
244.7078251735703
 20
255.213583670016
 30
0.0
 11
160.2078251735703
 21
255.213583670016
 31
0.0
  0
LINE
  5
40F
330
1F
100
AcDbEntity
  8
Sichtbare_Kanten_TC_020513_DIN_
  6
Continuous
 62
     7
100
AcDbLine
 10
154.2078251735703
 20
261.213583670016
 30
0.0
 11
154.2078251735703
 21
295.213583670016
 31
0.0
  0
LINE
  5
410
330
1F
100
AcDbEntity
  8
Sichtbare_Kanten_TC_020513_DIN_
  6
Continuous
 62
     7
100
AcDbLine
 10
249.7078251735703
 20
295.213583670016
 30
0.0
 11
249.7078251735703
 21
261.213583670016
 31
0.0
  0
LINE
  5
411
330
1F
100
AcDbEntity
  8
Sichtbare_Kanten_TC_020513_DIN_
  6
Continuous
 62
     7
100
AcDbLine
 10
160.2078251735703
 20
300.213583670016
 30
0.0
 11
244.7078251735703
 21
300.213583670016
 31
0.0
  0
LINE
  5
412
330
1F
100
AcDbEntity
  8
Sichtbare_Kanten_TC_020513_DIN_
  6
Continuous
 62
     7
100
AcDbLine
 10
160.2078251735703
 20
301.213583670016
 30
0.0
 11
244.7078251735703
 21
301.213583670016
 31
0.0
  0
LINE
  5
413
330
1F
100
AcDbEntity
  8
Sichtbare_Kanten_TC_020513_DIN_
  6
Continuous
 62
     7
100
AcDbLine
 10
245.7078251735703
 20
295.213583670016
 30
0.0
 11
245.7078251735703
 21
261.213583670016
 31
0.0
  0
LINE
  5
414
330
1F
100
AcDbEntity
  8
Sichtbare_Kanten_TC_020513_DIN_
  6
Continuous
 62
     7
100
AcDbLine
 10
160.2078251735703
 20
296.213583670016
 30
0.0
 11
244.7078251735703
 21
296.213583670016
 31
0.0
  0
LINE
  5
415
330
1F
100
AcDbEntity
  8
Sichtbare_Kanten_TC_020513_DIN_
  6
Continuous
 62
     7
100
AcDbLine
 10
159.2078251735703
 20
261.213583670016
 30
0.0
 11
159.2078251735703
 21
295.213583670016
 31
0.0
  0
LINE
  5
416
330
1F
100
AcDbEntity
  8
Sichtbare_Kanten_TC_020513_DIN_
  6
Continuous
 62
     7
100
AcDbLine
 10
244.7078251735703
 20
260.213583670016
 30
0.0
 11
160.2078251735703
 21
260.213583670016
 31
0.0
  0
LINE
  5
417
330
1F
100
AcDbEntity
  8
Sichtbare_Kanten_TC_020513_DIN_
  6
Continuous
 62
     7
100
AcDbLine
 10
211.4578251735703
 20
303.213583670016
 30
0.0
 11
193.4578251735703
 21
303.213583670016
 31
0.0
  0
LINE
  5
418
330
1F
100
AcDbEntity
  8
Sichtbare_Kanten_TC_020513_DIN_
  6
Continuous
 62
     7
100
AcDbLine
 10
211.4578251735703
 20
301.213583670016
 30
0.0
 11
211.4578251735703
 21
303.213583670016
 31
0.0
  0
LINE
  5
419
330
1F
100
AcDbEntity
  8
Sichtbare_Kanten_TC_020513_DIN_
  6
Continuous
 62
     7
100
AcDbLine
 10
193.4578251735703
 20
303.213583670016
 30
0.0
 11
193.4578251735703
 21
301.213583670016
 31
0.0
  0
LINE
  5
41A
330
1F
100
AcDbEntity
  8
Sichtbare_Kanten_TC_020513_DIN_
  6
Continuous
 62
     7
100
AcDbLine
 10
255.7078251735703
 20
282.713583670016
 30
0.0
 11
250.7078251735703
 21
282.713583670016
 31
0.0
  0
LINE
  5
41B
330
1F
100
AcDbEntity
  8
Sichtbare_Kanten_TC_020513_DIN_
  6
Continuous
 62
     7
100
AcDbLine
 10
255.7078251735703
 20
273.713583670016
 30
0.0
 11
250.7078251735703
 21
273.713583670016
 31
0.0
  0
LINE
  5
41C
330
1F
100
AcDbEntity
  8
Sichtbare_Kanten_TC_020513_DIN_
  6
Continuous
 62
     7
100
AcDbLine
 10
255.7078251735703
 20
282.713583670016
 30
0.0
 11
255.7078251735703
 21
273.713583670016
 31
0.0
  0
LINE
  5
41D
330
1F
100
AcDbEntity
  8
Sichtbare_Kanten_TC_020513_DIN_
  6
Continuous
 62
     7
100
AcDbLine
 10
154.2078251735703
 20
282.713583670016
 30
0.0
 11
149.2078251735703
 21
282.713583670016
 31
0.0
  0
LINE
  5
41E
330
1F
100
AcDbEntity
  8
Sichtbare_Kanten_TC_020513_DIN_
  6
Continuous
 62
     7
100
AcDbLine
 10
154.2078251735703
 20
273.713583670016
 30
0.0
 11
149.2078251735703
 21
273.713583670016
 31
0.0
  0
LINE
  5
41F
330
1F
100
AcDbEntity
  8
Sichtbare_Kanten_TC_020513_DIN_
  6
Continuous
 62
     7
100
AcDbLine
 10
149.2078251735703
 20
282.713583670016
 30
0.0
 11
149.2078251735703
 21
273.713583670016
 31
0.0
  0
LINE
  5
420
330
1F
100
AcDbEntity
  8
Sichtbare_Kanten_TC_020513_DIN_
  6
Continuous
 62
     7
100
AcDbLine
 10
251.9578251735703
 20
249.509825254207
 30
0.0
 11
251.9578251735703
 21
239.0745690050111
 31
0.0
  0
LINE
  5
421
330
1F
100
AcDbEntity
  8
Sichtbare_Kanten_TC_020513_DIN_
  6
Continuous
 62
     7
100
AcDbLine
 10
251.9578251735703
 20
239.0745690050111
 30
0.0
 11
249.1578251735704
 21
239.0745690050111
 31
0.0
  0
LINE
  5
422
330
1F
100
AcDbEntity
  8
Sichtbare_Kanten_TC_020513_DIN_
  6
Continuous
 62
     7
100
AcDbLine
 10
249.1578251735704
 20
249.0745690050111
 30
0.0
 11
251.5268857019142
 21
249.0745690050111
 31
0.0
  0
LINE
  5
423
330
1F
100
AcDbEntity
  8
Sichtbare_Kanten_TC_020513_DIN_
  6
Continuous
 62
     7
100
AcDbLine
 10
250.5578251735703
 20
249.509825254207
 30
0.0
 11
251.1738270863493
 21
249.509825254207
 31
0.0
  0
LINE
  5
424
330
1F
100
AcDbEntity
  8
Sichtbare_Kanten_TC_020513_DIN_
  6
Continuous
 62
     7
100
AcDbLine
 10
251.1738270863493
 20
249.509825254207
 30
0.0
 11
251.9578251735703
 21
249.509825254207
 31
0.0
  0
LINE
  5
425
330
1F
100
AcDbEntity
  8
Sichtbare_Kanten_TC_020513_DIN_
  6
Continuous
 62
     7
100
AcDbLine
 10
238.8456075290964
 20
236.3310608436391
 30
0.0
 11
238.8456075290964
 21
236.662391932523
 31
0.0
  0
LINE
  5
426
330
1F
100
AcDbEntity
  8
Sichtbare_Kanten_TC_020513_DIN_
  6
Continuous
 62
     7
100
AcDbLine
 10
238.8456075290964
 20
236.662391932523
 30
0.0
 11
238.8456075290964
 21
236.922726410076
 31
0.0
  0
LINE
  5
427
330
1F
100
AcDbEntity
  8
Sichtbare_Kanten_TC_020513_DIN_
  6
Continuous
 62
     7
100
AcDbLine
 10
237.5800382480524
 20
248.891206307602
 30
0.0
 11
237.5800382480524
 21
249.507207437883
 31
0.0
  0
LINE
  5
428
330
1F
100
AcDbEntity
  8
Sichtbare_Kanten_TC_020513_DIN_
  6
Continuous
 62
     7
100
AcDbLine
 10
237.5800382480524
 20
249.507207437883
 30
0.0
 11
237.5800382480524
 21
250.2912063076021
 31
0.0
  0
LINE
  5
429
330
1F
100
AcDbEntity
  8
Sichtbare_Kanten_TC_020513_DIN_
  6
Continuous
 62
     7
100
AcDbLine
 10
167.3356120990883
 20
250.2912063076021
 30
0.0
 11
167.3356120990883
 21
249.507207437883
 31
0.0
  0
LINE
  5
42A
330
1F
100
AcDbEntity
  8
Sichtbare_Kanten_TC_020513_DIN_
  6
Continuous
 62
     7
100
AcDbLine
 10
167.3356120990883
 20
249.507207437883
 30
0.0
 11
167.3356120990883
 21
248.891206307602
 31
0.0
  0
LINE
  5
42B
330
1F
100
AcDbEntity
  8
Sichtbare_Kanten_TC_020513_DIN_
  6
Continuous
 62
     7
100
AcDbLine
 10
153.3887646452273
 20
249.0745690050111
 30
0.0
 11
155.7578251735703
 21
249.0745690050111
 31
0.0
  0
LINE
  5
42C
330
1F
100
AcDbEntity
  8
Sichtbare_Kanten_TC_020513_DIN_
  6
Continuous
 62
     7
100
AcDbLine
 10
155.7578251735703
 20
239.0745690050111
 30
0.0
 11
152.9578251735703
 21
239.0745690050111
 31
0.0
  0
LINE
  5
42D
330
1F
100
AcDbEntity
  8
Sichtbare_Kanten_TC_020513_DIN_
  6
Continuous
 62
     7
100
AcDbLine
 10
152.9578251735703
 20
249.509825254207
 30
0.0
 11
153.7418232607913
 21
249.509825254207
 31
0.0
  0
LINE
  5
42E
330
1F
100
AcDbEntity
  8
Sichtbare_Kanten_TC_020513_DIN_
  6
Continuous
 62
     7
100
AcDbLine
 10
153.7418232607913
 20
249.509825254207
 30
0.0
 11
154.3578251735703
 21
249.509825254207
 31
0.0
  0
LINE
  5
42F
330
1F
100
AcDbEntity
  8
Sichtbare_Kanten_TC_020513_DIN_
  6
Continuous
 62
     7
100
AcDbLine
 10
152.9578251735703
 20
239.0745690050111
 30
0.0
 11
152.9578251735703
 21
249.509825254207
 31
0.0
  0
LINE
  5
430
330
1F
100
AcDbEntity
  8
Sichtbare_Kanten_TC_020513_DIN_
  6
Continuous
 62
     7
100
AcDbLine
 10
166.0700428180453
 20
236.922726410076
 30
0.0
 11
166.0700428180453
 21
236.662391932523
 31
0.0
  0
LINE
  5
431
330
1F
100
AcDbEntity
  8
Sichtbare_Kanten_TC_020513_DIN_
  6
Continuous
 62
     7
100
AcDbLine
 10
166.0700428180453
 20
236.662391932523
 30
0.0
 11
166.0700428180453
 21
236.3310608436391
 31
0.0
  0
LINE
  5
432
330
1F
100
AcDbEntity
  8
Sichtbare_Kanten_TC_020513_DIN_
  6
Continuous
 62
     7
100
AcDbLine
 10
235.2852102237154
 20
229.4792135313361
 30
0.0
 11
169.6304401234253
 21
229.4792135313361
 31
0.0
  0
LINE
  5
433
330
1F
100
AcDbEntity
  8
Sichtbare_Kanten_TC_020513_DIN_
  6
Continuous
 62
     7
100
AcDbLine
 10
169.6304401234253
 20
230.070879097773
 30
0.0
 11
235.2852102237154
 21
230.070879097773
 31
0.0
  0
LINE
  5
434
330
1F
100
AcDbEntity
  8
Sichtbare_Kanten_TC_020513_DIN_
  6
Continuous
 62
     7
100
AcDbLine
 10
234.3260514887423
 20
250.2912063076021
 30
0.0
 11
170.5895988583983
 21
250.2912063076021
 31
0.0
  0
LINE
  5
435
330
1F
100
AcDbEntity
  8
Sichtbare_Kanten_TC_020513_DIN_
  6
Continuous
 62
     7
100
AcDbLine
 10
234.3260514887423
 20
248.891206307602
 30
0.0
 11
170.5895988583983
 21
248.891206307602
 31
0.0
  0
LINE
  5
436
330
1F
100
AcDbEntity
  8
Sichtbare_Kanten_TC_020513_DIN_
  6
Continuous
 62
     7
100
AcDbLine
 10
167.6985884708473
 20
231.414355239827
 30
0.0
 11
166.0700428180453
 21
236.922726410076
 31
0.0
  0
LINE
  5
437
330
1F
100
AcDbEntity
  8
Sichtbare_Kanten_TC_020513_DIN_
  6
Continuous
 62
     7
100
AcDbLine
 10
166.0700428180453
 20
236.3310608436391
 30
0.0
 11
167.6985884708473
 21
230.82268967339
 31
0.0
  0
LINE
  5
438
330
1F
100
AcDbEntity
  8
Sichtbare_Kanten_TC_020513_DIN_
  6
Continuous
 62
     7
100
AcDbLine
 10
149.9201702585633
 20
221.4759287550081
 30
0.0
 11
149.9201702585633
 21
220.0759287550081
 31
0.0
  0
LINE
  5
439
330
1F
100
AcDbEntity
  8
Sichtbare_Kanten_TC_020513_DIN_
  6
Continuous
 62
     7
100
AcDbLine
 10
149.9201702585633
 20
221.4759287550081
 30
0.0
 11
150.4201702585633
 21
221.4759287550081
 31
0.0
  0
LINE
  5
43A
330
1F
100
AcDbEntity
  8
Sichtbare_Kanten_TC_020513_DIN_
  6
Continuous
 62
     7
100
AcDbLine
 10
150.4201702585633
 20
220.0759287550081
 30
0.0
 11
149.9201702585633
 21
220.0759287550081
 31
0.0
  0
LINE
  5
43B
330
1F
100
AcDbEntity
  8
Sichtbare_Kanten_TC_020513_DIN_
  6
Continuous
 62
     7
100
AcDbLine
 10
150.4201702585633
 20
220.0759287550081
 30
0.0
 11
150.9578251735703
 21
220.0759287550081
 31
0.0
  0
LINE
  5
43C
330
1F
100
AcDbEntity
  8
Sichtbare_Kanten_TC_020513_DIN_
  6
Continuous
 62
     7
100
AcDbLine
 10
150.9578251735703
 20
221.4759287550081
 30
0.0
 11
150.4201702585633
 21
221.4759287550081
 31
0.0
  0
LINE
  5
43D
330
1F
100
AcDbEntity
  8
Sichtbare_Kanten_TC_020513_DIN_
  6
Continuous
 62
     7
100
AcDbLine
 10
152.8578251735703
 20
221.4759287550081
 30
0.0
 11
152.6238366021543
 21
221.4759287550081
 31
0.0
  0
LINE
  5
43E
330
1F
100
AcDbEntity
  8
Sichtbare_Kanten_TC_020513_DIN_
  6
Continuous
 62
     7
100
AcDbLine
 10
168.6577472058203
 20
250.2912063076021
 30
0.0
 11
167.3356120990883
 21
250.2912063076021
 31
0.0
  0
LINE
  5
43F
330
1F
100
AcDbEntity
  8
Sichtbare_Kanten_TC_020513_DIN_
  6
Continuous
 62
     7
100
AcDbLine
 10
167.3356120990883
 20
248.891206307602
 30
0.0
 11
168.6577472058203
 21
248.891206307602
 31
0.0
  0
LINE
  5
440
330
1F
100
AcDbEntity
  8
Sichtbare_Kanten_TC_020513_DIN_
  6
Continuous
 62
     7
100
AcDbLine
 10
170.5895988583983
 20
248.891206307602
 30
0.0
 11
168.6577472058203
 21
248.891206307602
 31
0.0
  0
LINE
  5
441
330
1F
100
AcDbEntity
  8
Sichtbare_Kanten_TC_020513_DIN_
  6
Continuous
 62
     7
100
AcDbLine
 10
168.6577472058203
 20
250.2912063076021
 30
0.0
 11
170.5895988583983
 21
250.2912063076021
 31
0.0
  0
LINE
  5
442
330
1F
100
AcDbEntity
  8
Sichtbare_Kanten_TC_020513_DIN_
  6
Continuous
 62
     7
100
AcDbLine
 10
152.9578251735703
 20
256.713583670016
 30
0.0
 11
154.3578251735703
 21
256.713583670016
 31
0.0
  0
LINE
  5
443
330
1F
100
AcDbEntity
  8
Sichtbare_Kanten_TC_020513_DIN_
  6
Continuous
 62
     7
100
AcDbLine
 10
152.9578251735703
 20
221.7135836700161
 30
0.0
 11
154.3578251735703
 21
221.7135836700161
 31
0.0
  0
LINE
  5
444
330
1F
100
AcDbEntity
  8
Sichtbare_Kanten_TC_020513_DIN_
  6
Continuous
 62
     7
100
AcDbLine
 10
154.3578251735703
 20
221.5759287550081
 30
0.0
 11
154.3578251735703
 21
221.7135836700161
 31
0.0
  0
LINE
  5
445
330
1F
100
AcDbEntity
  8
Sichtbare_Kanten_TC_020513_DIN_
  6
Continuous
 62
     7
100
AcDbLine
 10
154.3578251735703
 20
229.929181985287
 30
0.0
 11
154.3578251735703
 21
221.7135836700161
 31
0.0
  0
LINE
  5
446
330
1F
100
AcDbEntity
  8
Sichtbare_Kanten_TC_020513_DIN_
  6
Continuous
 62
     7
100
AcDbLine
 10
154.3578251735703
 20
229.929181985287
 30
0.0
 11
154.3578251735703
 21
234.7571615413901
 31
0.0
  0
LINE
  5
447
330
1F
100
AcDbEntity
  8
Sichtbare_Kanten_TC_020513_DIN_
  6
Continuous
 62
     7
100
AcDbLine
 10
154.3578251735703
 20
234.7571615413901
 30
0.0
 11
154.3578251735703
 21
235.1057334331091
 31
0.0
  0
LINE
  5
448
330
1F
100
AcDbEntity
  8
Sichtbare_Kanten_TC_020513_DIN_
  6
Continuous
 62
     7
100
AcDbLine
 10
154.3578251735703
 20
235.1057334331091
 30
0.0
 11
154.3578251735703
 21
239.0745690050111
 31
0.0
  0
LINE
  5
449
330
1F
100
AcDbEntity
  8
Sichtbare_Kanten_TC_020513_DIN_
  6
Continuous
 62
     7
100
AcDbLine
 10
154.3578251735703
 20
249.509825254207
 30
0.0
 11
154.3578251735703
 21
251.557044938806
 31
0.0
  0
LINE
  5
44A
330
1F
100
AcDbEntity
  8
Sichtbare_Kanten_TC_020513_DIN_
  6
Continuous
 62
     7
100
AcDbLine
 10
154.3578251735703
 20
256.713583670016
 30
0.0
 11
154.3578251735703
 21
251.557044938806
 31
0.0
  0
LINE
  5
44B
330
1F
100
AcDbEntity
  8
Sichtbare_Kanten_TC_020513_DIN_
  6
Continuous
 62
     7
100
AcDbLine
 10
152.9578251735703
 20
251.557044938806
 30
0.0
 11
152.9578251735703
 21
256.713583670016
 31
0.0
  0
LINE
  5
44C
330
1F
100
AcDbEntity
  8
Sichtbare_Kanten_TC_020513_DIN_
  6
Continuous
 62
     7
100
AcDbLine
 10
152.9578251735703
 20
251.557044938806
 30
0.0
 11
152.9578251735703
 21
249.509825254207
 31
0.0
  0
LINE
  5
44D
330
1F
100
AcDbEntity
  8
Sichtbare_Kanten_TC_020513_DIN_
  6
Continuous
 62
     7
100
AcDbLine
 10
152.9578251735703
 20
239.0745690050111
 30
0.0
 11
152.9578251735703
 21
235.1057334331091
 31
0.0
  0
LINE
  5
44E
330
1F
100
AcDbEntity
  8
Sichtbare_Kanten_TC_020513_DIN_
  6
Continuous
 62
     7
100
AcDbLine
 10
152.9578251735703
 20
235.1057334331091
 30
0.0
 11
152.9578251735703
 21
234.7571615413901
 31
0.0
  0
LINE
  5
44F
330
1F
100
AcDbEntity
  8
Sichtbare_Kanten_TC_020513_DIN_
  6
Continuous
 62
     7
100
AcDbLine
 10
152.9578251735703
 20
234.7571615413901
 30
0.0
 11
152.9578251735703
 21
229.929181985287
 31
0.0
  0
LINE
  5
450
330
1F
100
AcDbEntity
  8
Sichtbare_Kanten_TC_020513_DIN_
  6
Continuous
 62
     7
100
AcDbLine
 10
152.9578251735703
 20
221.7135836700161
 30
0.0
 11
152.9578251735703
 21
229.929181985287
 31
0.0
  0
LINE
  5
451
330
1F
100
AcDbEntity
  8
Sichtbare_Kanten_TC_020513_DIN_
  6
Continuous
 62
     7
100
AcDbLine
 10
152.9578251735703
 20
221.7135836700161
 30
0.0
 11
152.9578251735703
 21
221.5759287550081
 31
0.0
  0
LINE
  5
452
330
1F
100
AcDbEntity
  8
Sichtbare_Kanten_TC_020513_DIN_
  6
Continuous
 62
     7
100
AcDbLine
 10
165.8343423979914
 20
237.5143919765131
 30
0.0
 11
165.4659439327334
 21
238.889273766286
 31
0.0
  0
LINE
  5
453
330
1F
100
AcDbEntity
  8
Sichtbare_Kanten_TC_020513_DIN_
  6
Continuous
 62
     7
100
AcDbLine
 10
165.2244624761613
 20
239.0745690050111
 30
0.0
 11
155.7578251735703
 21
239.0745690050111
 31
0.0
  0
LINE
  5
454
330
1F
100
AcDbEntity
  8
Sichtbare_Kanten_TC_020513_DIN_
  6
Continuous
 62
     7
100
AcDbLine
 10
155.7578251735703
 20
249.0745690050111
 30
0.0
 11
157.7244624761613
 21
249.0745690050111
 31
0.0
  0
LINE
  5
455
330
1F
100
AcDbEntity
  8
Sichtbare_Kanten_TC_020513_DIN_
  6
Continuous
 62
     7
100
AcDbLine
 10
158.4905069192803
 20
248.7173566146971
 30
0.0
 11
159.5692326117063
 21
247.431781395324
 31
0.0
  0
LINE
  5
456
330
1F
100
AcDbEntity
  8
Sichtbare_Kanten_TC_020513_DIN_
  6
Continuous
 62
     7
100
AcDbLine
 10
160.3352770548253
 20
247.0745690050111
 30
0.0
 11
165.2244624761613
 21
247.0745690050111
 31
0.0
  0
LINE
  5
457
330
1F
100
AcDbEntity
  8
Sichtbare_Kanten_TC_020513_DIN_
  6
Continuous
 62
     7
100
AcDbLine
 10
238.8456075290964
 20
236.3310608436391
 30
0.0
 11
237.2170618762943
 21
230.82268967339
 31
0.0
  0
LINE
  5
458
330
1F
100
AcDbEntity
  8
Sichtbare_Kanten_TC_020513_DIN_
  6
Continuous
 62
     7
100
AcDbLine
 10
254.9954800885773
 20
221.4759287550081
 30
0.0
 11
254.9954800885773
 21
220.0759287550081
 31
0.0
  0
LINE
  5
459
330
1F
100
AcDbEntity
  8
Sichtbare_Kanten_TC_020513_DIN_
  6
Continuous
 62
     7
100
AcDbLine
 10
254.4954800885784
 20
220.0759287550081
 30
0.0
 11
254.9954800885773
 21
220.0759287550081
 31
0.0
  0
LINE
  5
45A
330
1F
100
AcDbEntity
  8
Sichtbare_Kanten_TC_020513_DIN_
  6
Continuous
 62
     7
100
AcDbLine
 10
254.4954800885784
 20
220.0759287550081
 30
0.0
 11
253.9578251735703
 21
220.0759287550081
 31
0.0
  0
LINE
  5
45B
330
1F
100
AcDbEntity
  8
Sichtbare_Kanten_TC_020513_DIN_
  6
Continuous
 62
     7
100
AcDbLine
 10
254.9954800885773
 20
221.4759287550081
 30
0.0
 11
254.4954800885784
 21
221.4759287550081
 31
0.0
  0
LINE
  5
45C
330
1F
100
AcDbEntity
  8
Sichtbare_Kanten_TC_020513_DIN_
  6
Continuous
 62
     7
100
AcDbLine
 10
253.9578251735703
 20
221.4759287550081
 30
0.0
 11
254.4954800885784
 21
221.4759287550081
 31
0.0
  0
LINE
  5
45D
330
1F
100
AcDbEntity
  8
Sichtbare_Kanten_TC_020513_DIN_
  6
Continuous
 62
     7
100
AcDbLine
 10
252.0578251735703
 20
221.4759287550081
 30
0.0
 11
252.2918137449864
 21
221.4759287550081
 31
0.0
  0
LINE
  5
45E
330
1F
100
AcDbEntity
  8
Sichtbare_Kanten_TC_020513_DIN_
  6
Continuous
 62
     7
100
AcDbLine
 10
251.9578251735703
 20
256.713583670016
 30
0.0
 11
250.5578251735703
 21
256.713583670016
 31
0.0
  0
LINE
  5
45F
330
1F
100
AcDbEntity
  8
Sichtbare_Kanten_TC_020513_DIN_
  6
Continuous
 62
     7
100
AcDbLine
 10
251.9578251735703
 20
221.7135836700161
 30
0.0
 11
250.5578251735703
 21
221.7135836700161
 31
0.0
  0
LINE
  5
460
330
1F
100
AcDbEntity
  8
Sichtbare_Kanten_TC_020513_DIN_
  6
Continuous
 62
     7
100
AcDbLine
 10
250.5578251735703
 20
235.1057334331091
 30
0.0
 11
250.5578251735703
 21
239.0745690050111
 31
0.0
  0
LINE
  5
461
330
1F
100
AcDbEntity
  8
Sichtbare_Kanten_TC_020513_DIN_
  6
Continuous
 62
     7
100
AcDbLine
 10
250.5578251735703
 20
234.7571615413901
 30
0.0
 11
250.5578251735703
 21
235.1057334331091
 31
0.0
  0
LINE
  5
462
330
1F
100
AcDbEntity
  8
Sichtbare_Kanten_TC_020513_DIN_
  6
Continuous
 62
     7
100
AcDbLine
 10
250.5578251735703
 20
229.929181985287
 30
0.0
 11
250.5578251735703
 21
234.7571615413901
 31
0.0
  0
LINE
  5
463
330
1F
100
AcDbEntity
  8
Sichtbare_Kanten_TC_020513_DIN_
  6
Continuous
 62
     7
100
AcDbLine
 10
250.5578251735703
 20
229.929181985287
 30
0.0
 11
250.5578251735703
 21
221.7135836700161
 31
0.0
  0
LINE
  5
464
330
1F
100
AcDbEntity
  8
Sichtbare_Kanten_TC_020513_DIN_
  6
Continuous
 62
     7
100
AcDbLine
 10
250.5578251735703
 20
221.5759287550081
 30
0.0
 11
250.5578251735703
 21
221.7135836700161
 31
0.0
  0
LINE
  5
465
330
1F
100
AcDbEntity
  8
Sichtbare_Kanten_TC_020513_DIN_
  6
Continuous
 62
     7
100
AcDbLine
 10
250.5578251735703
 20
256.713583670016
 30
0.0
 11
250.5578251735703
 21
251.557044938806
 31
0.0
  0
LINE
  5
466
330
1F
100
AcDbEntity
  8
Sichtbare_Kanten_TC_020513_DIN_
  6
Continuous
 62
     7
100
AcDbLine
 10
251.9578251735703
 20
251.557044938806
 30
0.0
 11
251.9578251735703
 21
256.713583670016
 31
0.0
  0
LINE
  5
467
330
1F
100
AcDbEntity
  8
Sichtbare_Kanten_TC_020513_DIN_
  6
Continuous
 62
     7
100
AcDbLine
 10
251.9578251735703
 20
221.7135836700161
 30
0.0
 11
251.9578251735703
 21
221.5759287550081
 31
0.0
  0
LINE
  5
468
330
1F
100
AcDbEntity
  8
Sichtbare_Kanten_TC_020513_DIN_
  6
Continuous
 62
     7
100
AcDbLine
 10
251.9578251735703
 20
221.7135836700161
 30
0.0
 11
251.9578251735703
 21
229.929181985287
 31
0.0
  0
LINE
  5
469
330
1F
100
AcDbEntity
  8
Sichtbare_Kanten_TC_020513_DIN_
  6
Continuous
 62
     7
100
AcDbLine
 10
251.9578251735703
 20
234.7571615413901
 30
0.0
 11
251.9578251735703
 21
229.929181985287
 31
0.0
  0
LINE
  5
46A
330
1F
100
AcDbEntity
  8
Sichtbare_Kanten_TC_020513_DIN_
  6
Continuous
 62
     7
100
AcDbLine
 10
251.9578251735703
 20
235.1057334331091
 30
0.0
 11
251.9578251735703
 21
234.7571615413901
 31
0.0
  0
LINE
  5
46B
330
1F
100
AcDbEntity
  8
Sichtbare_Kanten_TC_020513_DIN_
  6
Continuous
 62
     7
100
AcDbLine
 10
251.9578251735703
 20
239.0745690050111
 30
0.0
 11
251.9578251735703
 21
235.1057334331091
 31
0.0
  0
LINE
  5
46C
330
1F
100
AcDbEntity
  8
Sichtbare_Kanten_TC_020513_DIN_
  6
Continuous
 62
     7
100
AcDbLine
 10
250.5578251735703
 20
249.509825254207
 30
0.0
 11
250.5578251735703
 21
251.557044938806
 31
0.0
  0
LINE
  5
46D
330
1F
100
AcDbEntity
  8
Sichtbare_Kanten_TC_020513_DIN_
  6
Continuous
 62
     7
100
AcDbLine
 10
251.9578251735703
 20
251.557044938806
 30
0.0
 11
251.9578251735703
 21
249.509825254207
 31
0.0
  0
LINE
  5
46E
330
1F
100
AcDbEntity
  8
Sichtbare_Kanten_TC_020513_DIN_
  6
Continuous
 62
     7
100
AcDbLine
 10
236.2579031413203
 20
250.2912063076021
 30
0.0
 11
237.5800382480524
 21
250.2912063076021
 31
0.0
  0
LINE
  5
46F
330
1F
100
AcDbEntity
  8
Sichtbare_Kanten_TC_020513_DIN_
  6
Continuous
 62
     7
100
AcDbLine
 10
236.2579031413203
 20
250.2912063076021
 30
0.0
 11
234.3260514887423
 21
250.2912063076021
 31
0.0
  0
LINE
  5
470
330
1F
100
AcDbEntity
  8
Sichtbare_Kanten_TC_020513_DIN_
  6
Continuous
 62
     7
100
AcDbLine
 10
237.2170618762943
 20
231.414355239827
 30
0.0
 11
238.8456075290964
 21
236.922726410076
 31
0.0
  0
LINE
  5
471
330
1F
100
AcDbEntity
  8
Sichtbare_Kanten_TC_020513_DIN_
  6
Continuous
 62
     7
100
AcDbLine
 10
234.3260514887423
 20
248.891206307602
 30
0.0
 11
236.2579031413203
 21
248.891206307602
 31
0.0
  0
LINE
  5
472
330
1F
100
AcDbEntity
  8
Sichtbare_Kanten_TC_020513_DIN_
  6
Continuous
 62
     7
100
AcDbLine
 10
237.5800382480524
 20
248.891206307602
 30
0.0
 11
236.2579031413203
 21
248.891206307602
 31
0.0
  0
LINE
  5
473
330
1F
100
AcDbEntity
  8
Sichtbare_Kanten_TC_020513_DIN_
  6
Continuous
 62
     7
100
AcDbLine
 10
244.5803732923154
 20
247.0745690050111
 30
0.0
 11
239.6911878709793
 21
247.0745690050111
 31
0.0
  0
LINE
  5
474
330
1F
100
AcDbEntity
  8
Sichtbare_Kanten_TC_020513_DIN_
  6
Continuous
 62
     7
100
AcDbLine
 10
246.4251434278604
 20
248.7173566146971
 30
0.0
 11
245.3464177354343
 21
247.431781395324
 31
0.0
  0
LINE
  5
475
330
1F
100
AcDbEntity
  8
Sichtbare_Kanten_TC_020513_DIN_
  6
Continuous
 62
     7
100
AcDbLine
 10
249.1578251735704
 20
249.0745690050111
 30
0.0
 11
247.1911878709793
 21
249.0745690050111
 31
0.0
  0
LINE
  5
476
330
1F
100
AcDbEntity
  8
Sichtbare_Kanten_TC_020513_DIN_
  6
Continuous
 62
     7
100
AcDbLine
 10
239.6911878709793
 20
239.0745690050111
 30
0.0
 11
249.1578251735704
 21
239.0745690050111
 31
0.0
  0
LINE
  5
477
330
1F
100
AcDbEntity
  8
Sichtbare_Kanten_TC_020513_DIN_
  6
Continuous
 62
     7
100
AcDbLine
 10
239.0813079491493
 20
237.5143919765131
 30
0.0
 11
239.4497064144073
 21
238.889273766286
 31
0.0
  0
LINE
  5
478
330
1F
100
AcDbEntity
  8
Sichtbare_Kanten_TC_020513_DIN_
  6
Continuous
 62
     7
100
AcDbLine
 10
202.4578251735703
 20
242.7135836700161
 30
0.0
 11
201.7078251735703
 21
243.7493035458061
 31
0.0
  0
LINE
  5
479
330
1F
100
AcDbEntity
  8
Sichtbare_Kanten_TC_020513_DIN_
  6
Continuous
 62
     7
100
AcDbLine
 10
201.7078251735703
 20
243.7493035458061
 30
0.0
 11
201.7078251735703
 21
241.089064305774
 31
0.0
  0
LINE
  5
47A
330
1F
100
AcDbEntity
  8
Sichtbare_Kanten_TC_020513_DIN_
  6
Continuous
 62
     7
100
AcDbLine
 10
201.2078251735703
 20
241.089064305774
 30
0.0
 11
201.2078251735703
 21
244.5207953419501
 31
0.0
  0
LINE
  5
47B
330
1F
100
AcDbEntity
  8
Sichtbare_Kanten_TC_020513_DIN_
  6
Continuous
 62
     7
100
AcDbLine
 10
203.2078251735703
 20
243.7493035458061
 30
0.0
 11
202.4578251735703
 21
242.7135836700161
 31
0.0
  0
LINE
  5
47C
330
1F
100
AcDbEntity
  8
Sichtbare_Kanten_TC_020513_DIN_
  6
Continuous
 62
     7
100
AcDbLine
 10
203.2078251735703
 20
239.9063719980811
 30
0.0
 11
203.2078251735703
 21
243.7493035458061
 31
0.0
  0
LINE
  5
47D
330
1F
100
AcDbEntity
  8
Sichtbare_Kanten_TC_020513_DIN_
  6
Continuous
 62
     7
100
AcDbLine
 10
203.7078251735703
 20
244.5207953419501
 30
0.0
 11
203.7078251735703
 21
239.9063719980811
 31
0.0
  0
LINE
  5
47E
330
1F
100
AcDbEntity
  8
Sichtbare_Kanten_TC_020513_DIN_
  6
Continuous
 62
     7
100
AcDbLine
 10
202.4578251735703
 20
243.566087345109
 30
0.0
 11
203.2553392672434
 21
244.66742227583
 31
0.0
  0
LINE
  5
47F
330
1F
100
AcDbEntity
  8
Sichtbare_Kanten_TC_020513_DIN_
  6
Continuous
 62
     7
100
AcDbLine
 10
201.6603110798973
 20
244.66742227583
 30
0.0
 11
202.4578251735703
 21
243.566087345109
 31
0.0
  0
LINE
  5
480
330
1F
100
AcDbEntity
  8
Sichtbare_Kanten_TC_020513_DIN_
  6
Continuous
 62
     7
100
AcDbLine
 10
200.6578251735704
 20
243.9150261111811
 30
0.0
 11
200.6578251735704
 21
240.656532210001
 31
0.0
  0
LINE
  5
481
330
1F
100
AcDbEntity
  8
Sichtbare_Kanten_TC_020513_DIN_
  6
Continuous
 62
     7
100
AcDbLine
 10
200.6578251735704
 20
240.656532210001
 30
0.0
 11
202.5827557869433
 21
239.5459953176701
 31
0.0
  0
LINE
  5
482
330
1F
100
AcDbEntity
  8
Sichtbare_Kanten_TC_020513_DIN_
  6
Continuous
 62
     7
100
AcDbLine
 10
200.1578251735704
 20
240.51214122885
 30
0.0
 11
200.1578251735704
 21
243.9150261111811
 31
0.0
  0
LINE
  5
483
330
1F
100
AcDbEntity
  8
Sichtbare_Kanten_TC_020513_DIN_
  6
Continuous
 62
     7
100
AcDbLine
 10
202.3328945601983
 20
239.1129025246461
 30
0.0
 11
200.2828945601983
 21
240.2955948323381
 31
0.0
  0
LINE
  5
484
330
1F
100
AcDbEntity
  8
Sichtbare_Kanten_TC_020513_DIN_
  6
Continuous
 62
     7
100
AcDbLine
 10
195.9578251735703
 20
242.2135836700161
 30
0.0
 11
202.4578251735703
 21
245.9635836700161
 31
0.0
  0
LINE
  5
485
330
1F
100
AcDbEntity
  8
Sichtbare_Kanten_TC_020513_DIN_
  6
Continuous
 62
     7
100
AcDbLine
 10
202.4578251735703
 20
238.4635836700161
 30
0.0
 11
195.9578251735703
 21
242.2135836700161
 31
0.0
  0
LINE
  5
486
330
1F
100
AcDbEntity
  8
Sichtbare_Kanten_TC_020513_DIN_
  6
Continuous
 62
     7
100
AcDbLine
 10
202.4578251735703
 20
238.7522054203971
 30
0.0
 11
208.4575474729103
 21
242.2135836700161
 31
0.0
  0
LINE
  5
487
330
1F
100
AcDbEntity
  8
Sichtbare_Kanten_TC_020513_DIN_
  6
Continuous
 62
     7
100
AcDbLine
 10
196.4581028742304
 20
242.2135836700161
 30
0.0
 11
202.4578251735703
 21
238.7522054203971
 31
0.0
  0
LINE
  5
488
330
1F
100
AcDbEntity
  8
Sichtbare_Kanten_TC_020513_DIN_
  6
Continuous
 62
     7
100
AcDbLine
 10
208.9578251735703
 20
242.2135836700161
 30
0.0
 11
202.4578251735703
 21
238.4635836700161
 31
0.0
  0
LINE
  5
489
330
1F
100
AcDbEntity
  8
Sichtbare_Kanten_TC_020513_DIN_
  6
Continuous
 62
     7
100
AcDbLine
 10
202.4578251735703
 20
245.9635836700161
 30
0.0
 11
208.9578251735703
 21
242.2135836700161
 31
0.0
  0
LINE
  5
48A
330
1F
100
AcDbEntity
  8
Sichtbare_Kanten_TC_020513_DIN_
  6
Continuous
 62
     7
100
AcDbLine
 10
202.4578251735703
 20
245.674961919635
 30
0.0
 11
196.4581028742304
 21
242.2135836700161
 31
0.0
  0
LINE
  5
48B
330
1F
100
AcDbEntity
  8
Sichtbare_Kanten_TC_020513_DIN_
  6
Continuous
 62
     7
100
AcDbLine
 10
208.4575474729103
 20
242.2135836700161
 30
0.0
 11
202.4578251735703
 21
245.674961919635
 31
0.0
  0
LINE
  5
48C
330
1F
100
AcDbEntity
  8
Sichtbare_Kanten_TC_020513_DIN_
  6
Continuous
 62
     7
100
AcDbLine
 10
199.6578251735704
 20
243.3381030342581
 30
0.0
 11
199.6578251735704
 21
241.089064305774
 31
0.0
  0
LINE
  5
48D
330
1F
100
AcDbEntity
  8
Sichtbare_Kanten_TC_020513_DIN_
  6
Continuous
 62
     7
100
AcDbLine
 10
199.1578251735704
 20
241.089064305774
 30
0.0
 11
199.1578251735704
 21
243.3381030342581
 31
0.0
  0
LINE
  5
48E
330
1F
100
AcDbEntity
  8
Sichtbare_Kanten_TC_020513_DIN_
  6
Continuous
 62
     7
100
AcDbLine
 10
204.5827557869424
 20
244.1604186615391
 30
0.0
 11
205.5827557869433
 21
243.5834955846161
 31
0.0
  0
LINE
  5
48F
330
1F
100
AcDbEntity
  8
Sichtbare_Kanten_TC_020513_DIN_
  6
Continuous
 62
     7
100
AcDbLine
 10
205.3328945601983
 20
243.1504027915921
 30
0.0
 11
204.7078251735703
 21
243.511019745415
 31
0.0
  0
LINE
  5
490
330
1F
100
AcDbEntity
  8
Sichtbare_Kanten_TC_020513_DIN_
  6
Continuous
 62
     7
100
AcDbLine
 10
204.7078251735703
 20
243.511019745415
 30
0.0
 11
204.7078251735703
 21
242.4635836700161
 31
0.0
  0
LINE
  5
491
330
1F
100
AcDbEntity
  8
Sichtbare_Kanten_TC_020513_DIN_
  6
Continuous
 62
     7
100
AcDbLine
 10
204.7078251735703
 20
242.4635836700161
 30
0.0
 11
205.4578251735703
 21
242.4635836700161
 31
0.0
  0
LINE
  5
492
330
1F
100
AcDbEntity
  8
Sichtbare_Kanten_TC_020513_DIN_
  6
Continuous
 62
     7
100
AcDbLine
 10
204.2078251735703
 20
240.4832950750041
 30
0.0
 11
204.2078251735703
 21
243.943872265027
 31
0.0
  0
LINE
  5
493
330
1F
100
AcDbEntity
  8
Sichtbare_Kanten_TC_020513_DIN_
  6
Continuous
 62
     7
100
AcDbLine
 10
205.5827557869433
 20
240.8436717554151
 30
0.0
 11
204.5827557869424
 21
240.2667486784921
 31
0.0
  0
LINE
  5
494
330
1F
100
AcDbEntity
  8
Sichtbare_Kanten_TC_020513_DIN_
  6
Continuous
 62
     7
100
AcDbLine
 10
204.7078251735703
 20
240.916147594616
 30
0.0
 11
205.3328945601983
 21
241.27676454844
 31
0.0
  0
LINE
  5
495
330
1F
100
AcDbEntity
  8
Sichtbare_Kanten_TC_020513_DIN_
  6
Continuous
 62
     7
100
AcDbLine
 10
204.7078251735703
 20
241.9635836700161
 30
0.0
 11
204.7078251735703
 21
240.916147594616
 31
0.0
  0
LINE
  5
496
330
1F
100
AcDbEntity
  8
Sichtbare_Kanten_TC_020513_DIN_
  6
Continuous
 62
     7
100
AcDbLine
 10
205.4578251735703
 20
241.9635836700161
 30
0.0
 11
204.7078251735703
 21
241.9635836700161
 31
0.0
  0
LINE
  5
497
330
1F
100
AcDbEntity
  8
Sichtbare_Kanten_TC_020513_DIN_
  6
Continuous
 62
     7
100
AcDbLine
 10
260.9578251735703
 20
210.243583670016
 30
0.0
 11
249.2078251735703
 21
210.243583670016
 31
0.0
  0
LINE
  5
498
330
1F
100
AcDbEntity
  8
Sichtbare_Kanten_TC_020513_DIN_
  6
Continuous
 62
     7
100
AcDbLine
 10
260.9578251735703
 20
195.103583670016
 30
0.0
 11
260.9578251735703
 21
179.7135836700161
 31
0.0
  0
LINE
  5
499
330
1F
100
AcDbEntity
  8
Sichtbare_Kanten_TC_020513_DIN_
  6
Continuous
 62
     7
100
AcDbLine
 10
260.9578251735703
 20
195.103583670016
 30
0.0
 11
260.9578251735703
 21
210.243583670016
 31
0.0
  0
LINE
  5
49A
330
1F
100
AcDbEntity
  8
Sichtbare_Kanten_TC_020513_DIN_
  6
Continuous
 62
     7
100
AcDbLine
 10
155.6178251735703
 20
230.2135836700161
 30
0.0
 11
155.7078251735703
 21
230.2135836700161
 31
0.0
  0
LINE
  5
49B
330
1F
100
AcDbEntity
  8
Sichtbare_Kanten_TC_020513_DIN_
  6
Continuous
 62
     7
100
AcDbLine
 10
155.6178251735703
 20
233.2135836700161
 30
0.0
 11
155.7078251735703
 21
233.2135836700161
 31
0.0
  0
LINE
  5
49C
330
1F
100
AcDbEntity
  8
Sichtbare_Kanten_TC_020513_DIN_
  6
Continuous
 62
     7
100
AcDbLine
 10
150.3578251735703
 20
229.2135836700161
 30
0.0
 11
150.9578251735703
 21
229.2135836700161
 31
0.0
  0
LINE
  5
49D
330
1F
100
AcDbEntity
  8
Sichtbare_Kanten_TC_020513_DIN_
  6
Continuous
 62
     7
100
AcDbLine
 10
150.3578251735703
 20
234.2135836700161
 30
0.0
 11
150.9578251735703
 21
234.2135836700161
 31
0.0
  0
LINE
  5
49E
330
1F
100
AcDbEntity
  8
Sichtbare_Kanten_TC_020513_DIN_
  6
Continuous
 62
     7
100
AcDbLine
 10
154.3578251735703
 20
229.2135836700161
 30
0.0
 11
155.6178251735703
 21
229.2135836700161
 31
0.0
  0
LINE
  5
49F
330
1F
100
AcDbEntity
  8
Sichtbare_Kanten_TC_020513_DIN_
  6
Continuous
 62
     7
100
AcDbLine
 10
152.3578251735703
 20
229.2135836700161
 30
0.0
 11
152.9578251735703
 21
229.2135836700161
 31
0.0
  0
LINE
  5
4A0
330
1F
100
AcDbEntity
  8
Sichtbare_Kanten_TC_020513_DIN_
  6
Continuous
 62
     7
100
AcDbLine
 10
154.3578251735703
 20
234.2135836700161
 30
0.0
 11
155.6178251735703
 21
234.2135836700161
 31
0.0
  0
LINE
  5
4A1
330
1F
100
AcDbEntity
  8
Sichtbare_Kanten_TC_020513_DIN_
  6
Continuous
 62
     7
100
AcDbLine
 10
152.3578251735703
 20
234.2135836700161
 30
0.0
 11
152.9578251735703
 21
234.2135836700161
 31
0.0
  0
LINE
  5
4A2
330
1F
100
AcDbEntity
  8
Sichtbare_Kanten_TC_020513_DIN_
  6
Continuous
 62
     7
100
AcDbLine
 10
155.6178251735703
 20
229.2135836700161
 30
0.0
 11
155.6178251735703
 21
234.2135836700161
 31
0.0
  0
LINE
  5
4A3
330
1F
100
AcDbEntity
  8
Sichtbare_Kanten_TC_020513_DIN_
  6
Continuous
 62
     7
100
AcDbLine
 10
150.3578251735703
 20
227.7135836700161
 30
0.0
 11
150.3578251735703
 21
235.7135836700161
 31
0.0
  0
LINE
  5
4A4
330
1F
100
AcDbEntity
  8
Sichtbare_Kanten_TC_020513_DIN_
  6
Continuous
 62
     7
100
AcDbLine
 10
148.9578251735703
 20
227.7135836700161
 30
0.0
 11
148.9578251735703
 21
235.7135836700161
 31
0.0
  0
LINE
  5
4A5
330
1F
100
AcDbEntity
  8
Sichtbare_Kanten_TC_020513_DIN_
  6
Continuous
 62
     7
100
AcDbLine
 10
249.2078251735703
 20
230.2135836700161
 30
0.0
 11
249.2978251735702
 21
230.2135836700161
 31
0.0
  0
LINE
  5
4A6
330
1F
100
AcDbEntity
  8
Sichtbare_Kanten_TC_020513_DIN_
  6
Continuous
 62
     7
100
AcDbLine
 10
249.2078251735703
 20
233.2135836700161
 30
0.0
 11
249.2978251735702
 21
233.2135836700161
 31
0.0
  0
LINE
  5
4A7
330
1F
100
AcDbEntity
  8
Sichtbare_Kanten_TC_020513_DIN_
  6
Continuous
 62
     7
100
AcDbLine
 10
253.9578251735703
 20
229.2135836700161
 30
0.0
 11
254.5578251735703
 21
229.2135836700161
 31
0.0
  0
LINE
  5
4A8
330
1F
100
AcDbEntity
  8
Sichtbare_Kanten_TC_020513_DIN_
  6
Continuous
 62
     7
100
AcDbLine
 10
253.9578251735703
 20
234.2135836700161
 30
0.0
 11
254.5578251735703
 21
234.2135836700161
 31
0.0
  0
LINE
  5
4A9
330
1F
100
AcDbEntity
  8
Sichtbare_Kanten_TC_020513_DIN_
  6
Continuous
 62
     7
100
AcDbLine
 10
251.9578251735703
 20
229.2135836700161
 30
0.0
 11
252.5578251735703
 21
229.2135836700161
 31
0.0
  0
LINE
  5
4AA
330
1F
100
AcDbEntity
  8
Sichtbare_Kanten_TC_020513_DIN_
  6
Continuous
 62
     7
100
AcDbLine
 10
249.2978251735702
 20
229.2135836700161
 30
0.0
 11
250.5578251735703
 21
229.2135836700161
 31
0.0
  0
LINE
  5
4AB
330
1F
100
AcDbEntity
  8
Sichtbare_Kanten_TC_020513_DIN_
  6
Continuous
 62
     7
100
AcDbLine
 10
251.9578251735703
 20
234.2135836700161
 30
0.0
 11
252.5578251735703
 21
234.2135836700161
 31
0.0
  0
LINE
  5
4AC
330
1F
100
AcDbEntity
  8
Sichtbare_Kanten_TC_020513_DIN_
  6
Continuous
 62
     7
100
AcDbLine
 10
249.2978251735702
 20
234.2135836700161
 30
0.0
 11
250.5578251735703
 21
234.2135836700161
 31
0.0
  0
LINE
  5
4AD
330
1F
100
AcDbEntity
  8
Sichtbare_Kanten_TC_020513_DIN_
  6
Continuous
 62
     7
100
AcDbLine
 10
249.2978251735702
 20
229.2135836700161
 30
0.0
 11
249.2978251735702
 21
234.2135836700161
 31
0.0
  0
LINE
  5
4AE
330
1F
100
AcDbEntity
  8
Sichtbare_Kanten_TC_020513_DIN_
  6
Continuous
 62
     7
100
AcDbLine
 10
254.5578251735703
 20
227.7135836700161
 30
0.0
 11
254.5578251735703
 21
235.7135836700161
 31
0.0
  0
LINE
  5
4AF
330
1F
100
AcDbEntity
  8
Sichtbare_Kanten_TC_020513_DIN_
  6
Continuous
 62
     7
100
AcDbLine
 10
255.9578251735703
 20
227.7135836700161
 30
0.0
 11
255.9578251735703
 21
235.7135836700161
 31
0.0
  0
LINE
  5
4B0
330
1F
100
AcDbEntity
  8
Sichtbare_Kanten_TC_020513_DIN_
  6
Continuous
 62
     7
100
AcDbLine
 10
155.9078251735704
 20
238.7135836700161
 30
0.0
 11
155.9078251735704
 21
234.7135836700161
 31
0.0
  0
LINE
  5
4B1
330
1F
100
AcDbEntity
  8
Sichtbare_Kanten_TC_020513_DIN_
  6
Continuous
 62
     7
100
AcDbLine
 10
249.0078251735703
 20
238.7135836700161
 30
0.0
 11
249.0078251735703
 21
234.7135836700161
 31
0.0
  0
LINE
  5
4B2
330
1F
100
AcDbEntity
  8
Sichtbare_Kanten_TC_020513_DIN_
  6
Continuous
 62
     7
100
AcDbLine
 10
249.0078251735703
 20
238.7135836700161
 30
0.0
 11
243.2078251735703
 21
238.7135836700161
 31
0.0
  0
LINE
  5
4B3
330
1F
100
AcDbEntity
  8
Sichtbare_Kanten_TC_020513_DIN_
  6
Continuous
 62
     7
100
AcDbLine
 10
239.4026303949933
 20
238.7135836700161
 30
0.0
 11
243.2078251735703
 21
238.7135836700161
 31
0.0
  0
LINE
  5
4B4
330
1F
100
AcDbEntity
  8
Sichtbare_Kanten_TC_020513_DIN_
  6
Continuous
 62
     7
100
AcDbLine
 10
161.7078251735703
 20
238.7135836700161
 30
0.0
 11
165.5130199521474
 21
238.7135836700161
 31
0.0
  0
LINE
  5
4B5
330
1F
100
AcDbEntity
  8
Sichtbare_Kanten_TC_020513_DIN_
  6
Continuous
 62
     7
100
AcDbLine
 10
161.7078251735703
 20
238.7135836700161
 30
0.0
 11
155.9078251735704
 21
238.7135836700161
 31
0.0
  0
LINE
  5
4B6
330
1F
100
AcDbEntity
  8
Sichtbare_Kanten_TC_020513_DIN_
  6
Continuous
 62
     7
100
AcDbLine
 10
155.7078251735703
 20
220.896946367425
 30
0.0
 11
155.7078251735703
 21
234.7135836700161
 31
0.0
  0
LINE
  5
4B7
330
1F
100
AcDbEntity
  8
Sichtbare_Kanten_TC_020513_DIN_
  6
Continuous
 62
     7
100
AcDbLine
 10
155.7078251735703
 20
179.7135836700161
 30
0.0
 11
155.7078251735703
 21
219.496946367425
 31
0.0
  0
LINE
  5
4B8
330
1F
100
AcDbEntity
  8
Sichtbare_Kanten_TC_020513_DIN_
  6
Continuous
 62
     7
100
AcDbLine
 10
249.2078251735703
 20
220.896946367425
 30
0.0
 11
249.2078251735703
 21
234.7135836700161
 31
0.0
  0
LINE
  5
4B9
330
1F
100
AcDbEntity
  8
Sichtbare_Kanten_TC_020513_DIN_
  6
Continuous
 62
     7
100
AcDbLine
 10
249.2078251735703
 20
179.7135836700161
 30
0.0
 11
249.2078251735703
 21
219.496946367425
 31
0.0
  0
LINE
  5
4BA
330
1F
100
AcDbEntity
  8
Sichtbare_Kanten_TC_020513_DIN_
  6
Continuous
 62
     7
100
AcDbLine
 10
243.2078251735703
 20
234.7135836700161
 30
0.0
 11
249.2078251735703
 21
234.7135836700161
 31
0.0
  0
LINE
  5
4BB
330
1F
100
AcDbEntity
  8
Sichtbare_Kanten_TC_020513_DIN_
  6
Continuous
 62
     7
100
AcDbLine
 10
155.7078251735703
 20
234.7135836700161
 30
0.0
 11
161.7078251735703
 21
234.7135836700161
 31
0.0
  0
LINE
  5
4BC
330
1F
100
AcDbEntity
  8
Sichtbare_Kanten_TC_020513_DIN_
  6
Continuous
 62
     7
100
AcDbLine
 10
166.5482486865673
 20
234.7135836700161
 30
0.0
 11
161.7078251735703
 21
234.7135836700161
 31
0.0
  0
LINE
  5
4BD
330
1F
100
AcDbEntity
  8
Sichtbare_Kanten_TC_020513_DIN_
  6
Continuous
 62
     7
100
AcDbLine
 10
243.2078251735703
 20
234.7135836700161
 30
0.0
 11
238.3674016605734
 21
234.7135836700161
 31
0.0
  0
LINE
  5
4BE
330
1F
100
AcDbEntity
  8
Sichtbare_Kanten_TC_020513_DIN_
  6
Continuous
 62
     7
100
AcDbLine
 10
155.7078251735703
 20
210.243583670016
 30
0.0
 11
143.9578251735703
 21
210.243583670016
 31
0.0
  0
LINE
  5
4BF
330
1F
100
AcDbEntity
  8
Sichtbare_Kanten_TC_020513_DIN_
  6
Continuous
 62
     7
100
AcDbLine
 10
143.9578251735703
 20
195.103583670016
 30
0.0
 11
143.9578251735703
 21
210.243583670016
 31
0.0
  0
LINE
  5
4C0
330
1F
100
AcDbEntity
  8
Sichtbare_Kanten_TC_020513_DIN_
  6
Continuous
 62
     7
100
AcDbLine
 10
143.9578251735703
 20
195.103583670016
 30
0.0
 11
143.9578251735703
 21
179.7135836700161
 31
0.0
  0
LINE
  5
4C1
330
1F
100
AcDbEntity
  8
Sichtbare_Kanten_TC_020513_DIN_
  6
Continuous
 62
     7
100
AcDbLine
 10
260.9578251735703
 20
175.7135836700161
 30
0.0
 11
260.9578251735703
 21
179.7135836700161
 31
0.0
  0
LINE
  5
4C2
330
1F
100
AcDbEntity
  8
Sichtbare_Kanten_TC_020513_DIN_
  6
Continuous
 62
     7
100
AcDbLine
 10
260.9578251735703
 20
175.7135836700161
 30
0.0
 11
251.9578251735703
 21
175.7135836700161
 31
0.0
  0
LINE
  5
4C3
330
1F
100
AcDbEntity
  8
Sichtbare_Kanten_TC_020513_DIN_
  6
Continuous
 62
     7
100
AcDbLine
 10
260.9578251735703
 20
179.7135836700161
 30
0.0
 11
251.9578251735703
 21
179.7135836700161
 31
0.0
  0
LINE
  5
4C4
330
1F
100
AcDbEntity
  8
Sichtbare_Kanten_TC_020513_DIN_
  6
Continuous
 62
     7
100
AcDbLine
 10
251.9578251735703
 20
175.7135836700161
 30
0.0
 11
251.9578251735703
 21
179.7135836700161
 31
0.0
  0
LINE
  5
4C5
330
1F
100
AcDbEntity
  8
Sichtbare_Kanten_TC_020513_DIN_
  6
Continuous
 62
     7
100
AcDbLine
 10
251.9578251735703
 20
175.7135836700161
 30
0.0
 11
241.9578251735703
 21
175.7135836700161
 31
0.0
  0
LINE
  5
4C6
330
1F
100
AcDbEntity
  8
Sichtbare_Kanten_TC_020513_DIN_
  6
Continuous
 62
     7
100
AcDbLine
 10
251.9578251735703
 20
179.7135836700161
 30
0.0
 11
241.9578251735703
 21
179.7135836700161
 31
0.0
  0
LINE
  5
4C7
330
1F
100
AcDbEntity
  8
Sichtbare_Kanten_TC_020513_DIN_
  6
Continuous
 62
     7
100
AcDbLine
 10
241.9578251735703
 20
175.7135836700161
 30
0.0
 11
241.9578251735703
 21
179.7135836700161
 31
0.0
  0
LINE
  5
4C8
330
1F
100
AcDbEntity
  8
Sichtbare_Kanten_TC_020513_DIN_
  6
Continuous
 62
     7
100
AcDbLine
 10
241.9578251735703
 20
175.7135836700161
 30
0.0
 11
162.9578251735703
 21
175.7135836700161
 31
0.0
  0
LINE
  5
4C9
330
1F
100
AcDbEntity
  8
Sichtbare_Kanten_TC_020513_DIN_
  6
Continuous
 62
     7
100
AcDbLine
 10
162.9578251735703
 20
175.7135836700161
 30
0.0
 11
162.9578251735703
 21
179.7135836700161
 31
0.0
  0
LINE
  5
4CA
330
1F
100
AcDbEntity
  8
Sichtbare_Kanten_TC_020513_DIN_
  6
Continuous
 62
     7
100
AcDbLine
 10
162.9578251735703
 20
175.7135836700161
 30
0.0
 11
152.9578251735703
 21
175.7135836700161
 31
0.0
  0
LINE
  5
4CB
330
1F
100
AcDbEntity
  8
Sichtbare_Kanten_TC_020513_DIN_
  6
Continuous
 62
     7
100
AcDbLine
 10
162.9578251735703
 20
179.7135836700161
 30
0.0
 11
152.9578251735703
 21
179.7135836700161
 31
0.0
  0
LINE
  5
4CC
330
1F
100
AcDbEntity
  8
Sichtbare_Kanten_TC_020513_DIN_
  6
Continuous
 62
     7
100
AcDbLine
 10
152.9578251735703
 20
175.7135836700161
 30
0.0
 11
152.9578251735703
 21
179.7135836700161
 31
0.0
  0
LINE
  5
4CD
330
1F
100
AcDbEntity
  8
Sichtbare_Kanten_TC_020513_DIN_
  6
Continuous
 62
     7
100
AcDbLine
 10
152.9578251735703
 20
175.7135836700161
 30
0.0
 11
143.9578251735703
 21
175.7135836700161
 31
0.0
  0
LINE
  5
4CE
330
1F
100
AcDbEntity
  8
Sichtbare_Kanten_TC_020513_DIN_
  6
Continuous
 62
     7
100
AcDbLine
 10
152.9578251735703
 20
179.7135836700161
 30
0.0
 11
143.9578251735703
 21
179.7135836700161
 31
0.0
  0
LINE
  5
4CF
330
1F
100
AcDbEntity
  8
Sichtbare_Kanten_TC_020513_DIN_
  6
Continuous
 62
     7
100
AcDbLine
 10
143.9578251735703
 20
175.7135836700161
 30
0.0
 11
143.9578251735703
 21
179.7135836700161
 31
0.0
  0
LINE
  5
4D0
330
1F
100
AcDbEntity
  8
Sichtbare_Kanten_TC_020513_DIN_
  6
Continuous
 62
     7
100
AcDbLine
 10
252.5578251735703
 20
216.9796432454101
 30
0.0
 11
253.9578251735703
 21
216.9796432454101
 31
0.0
  0
LINE
  5
4D1
330
1F
100
AcDbEntity
  8
Sichtbare_Kanten_TC_020513_DIN_
  6
Continuous
 62
     7
100
AcDbLine
 10
252.5578251735703
 20
238.7135836700161
 30
0.0
 11
253.9578251735703
 21
238.7135836700161
 31
0.0
  0
LINE
  5
4D2
330
1F
100
AcDbEntity
  8
Sichtbare_Kanten_TC_020513_DIN_
  6
Continuous
 62
     7
100
AcDbLine
 10
241.2411878709793
 20
218.5592914524171
 30
0.0
 11
212.7411878709793
 21
218.5592914524171
 31
0.0
  0
LINE
  5
4D3
330
1F
100
AcDbEntity
  8
Sichtbare_Kanten_TC_020513_DIN_
  6
Continuous
 62
     7
100
AcDbLine
 10
212.2411878709793
 20
219.0592914524171
 30
0.0
 11
212.2411878709793
 21
219.396946367425
 31
0.0
  0
LINE
  5
4D4
330
1F
100
AcDbEntity
  8
Sichtbare_Kanten_TC_020513_DIN_
  6
Continuous
 62
     7
100
AcDbLine
 10
253.9578251735703
 20
222.2969463674251
 30
0.0
 11
253.9578251735703
 21
216.9796432454101
 31
0.0
  0
LINE
  5
4D5
330
1F
100
AcDbEntity
  8
Sichtbare_Kanten_TC_020513_DIN_
  6
Continuous
 62
     7
100
AcDbLine
 10
252.5578251735703
 20
219.8720752368291
 30
0.0
 11
252.5578251735703
 21
216.9796432454101
 31
0.0
  0
LINE
  5
4D6
330
1F
100
AcDbEntity
  8
Sichtbare_Kanten_TC_020513_DIN_
  6
Continuous
 62
     7
100
AcDbLine
 10
253.9578251735703
 20
232.7135836700161
 30
0.0
 11
253.9578251735703
 21
224.7135836700161
 31
0.0
  0
LINE
  5
4D7
330
1F
100
AcDbEntity
  8
Sichtbare_Kanten_TC_020513_DIN_
  6
Continuous
 62
     7
100
AcDbLine
 10
252.5578251735703
 20
232.7135836700161
 30
0.0
 11
252.5578251735703
 21
224.7135836700161
 31
0.0
  0
LINE
  5
4D8
330
1F
100
AcDbEntity
  8
Sichtbare_Kanten_TC_020513_DIN_
  6
Continuous
 62
     7
100
AcDbLine
 10
253.9578251735703
 20
232.7135836700161
 30
0.0
 11
252.5578251735703
 21
232.7135836700161
 31
0.0
  0
LINE
  5
4D9
330
1F
100
AcDbEntity
  8
Sichtbare_Kanten_TC_020513_DIN_
  6
Continuous
 62
     7
100
AcDbLine
 10
253.9578251735703
 20
232.7135836700161
 30
0.0
 11
253.9578251735703
 21
232.8919959199231
 31
0.0
  0
LINE
  5
4DA
330
1F
100
AcDbEntity
  8
Sichtbare_Kanten_TC_020513_DIN_
  6
Continuous
 62
     7
100
AcDbLine
 10
252.5578251735703
 20
232.7135836700161
 30
0.0
 11
252.5578251735703
 21
232.8919959199231
 31
0.0
  0
LINE
  5
4DB
330
1F
100
AcDbEntity
  8
Sichtbare_Kanten_TC_020513_DIN_
  6
Continuous
 62
     7
100
AcDbLine
 10
253.9578251735703
 20
238.0055593835951
 30
0.0
 11
253.9578251735703
 21
232.8919959199231
 31
0.0
  0
LINE
  5
4DC
330
1F
100
AcDbEntity
  8
Sichtbare_Kanten_TC_020513_DIN_
  6
Continuous
 62
     7
100
AcDbLine
 10
252.5578251735703
 20
238.0055593835951
 30
0.0
 11
252.5578251735703
 21
232.8919959199231
 31
0.0
  0
LINE
  5
4DD
330
1F
100
AcDbEntity
  8
Sichtbare_Kanten_TC_020513_DIN_
  6
Continuous
 62
     7
100
AcDbLine
 10
253.9578251735703
 20
238.7135836700161
 30
0.0
 11
253.9578251735703
 21
238.0055593835951
 31
0.0
  0
LINE
  5
4DE
330
1F
100
AcDbEntity
  8
Sichtbare_Kanten_TC_020513_DIN_
  6
Continuous
 62
     7
100
AcDbLine
 10
252.5578251735703
 20
238.7135836700161
 30
0.0
 11
252.5578251735703
 21
238.0055593835951
 31
0.0
  0
LINE
  5
4DF
330
1F
100
AcDbEntity
  8
Sichtbare_Kanten_TC_020513_DIN_
  6
Continuous
 62
     7
100
AcDbLine
 10
252.5578251735703
 20
222.2969463674251
 30
0.0
 11
252.5578251735703
 21
224.7135836700161
 31
0.0
  0
LINE
  5
4E0
330
1F
100
AcDbEntity
  8
Sichtbare_Kanten_TC_020513_DIN_
  6
Continuous
 62
     7
100
AcDbLine
 10
253.9578251735703
 20
222.2969463674251
 30
0.0
 11
253.9578251735703
 21
224.7135836700161
 31
0.0
  0
LINE
  5
4E1
330
1F
100
AcDbEntity
  8
Sichtbare_Kanten_TC_020513_DIN_
  6
Continuous
 62
     7
100
AcDbLine
 10
241.2411878709793
 20
219.396946367425
 30
0.0
 11
241.2411878709793
 21
218.5592914524171
 31
0.0
  0
LINE
  5
4E2
330
1F
100
AcDbEntity
  8
Sichtbare_Kanten_TC_020513_DIN_
  6
Continuous
 62
     7
100
AcDbLine
 10
246.4496430460473
 20
219.496946367425
 30
0.0
 11
240.1172844465923
 21
219.496946367425
 31
0.0
  0
LINE
  5
4E3
330
1F
100
AcDbEntity
  8
Sichtbare_Kanten_TC_020513_DIN_
  6
Continuous
 62
     7
100
AcDbLine
 10
246.4496430460473
 20
219.496946367425
 30
0.0
 11
247.2411878709793
 21
219.496946367425
 31
0.0
  0
LINE
  5
4E4
330
1F
100
AcDbEntity
  8
Sichtbare_Kanten_TC_020513_DIN_
  6
Continuous
 62
     7
100
AcDbLine
 10
247.2411878709793
 20
219.496946367425
 30
0.0
 11
251.1578251735704
 21
219.496946367425
 31
0.0
  0
LINE
  5
4E5
330
1F
100
AcDbEntity
  8
Sichtbare_Kanten_TC_020513_DIN_
  6
Continuous
 62
     7
100
AcDbLine
 10
247.2411878709793
 20
220.896946367425
 30
0.0
 11
251.1578251735704
 21
220.896946367425
 31
0.0
  0
LINE
  5
4E6
330
1F
100
AcDbEntity
  8
Sichtbare_Kanten_TC_020513_DIN_
  6
Continuous
 62
     7
100
AcDbLine
 10
246.4496430460473
 20
220.896946367425
 30
0.0
 11
247.2411878709793
 21
220.896946367425
 31
0.0
  0
LINE
  5
4E7
330
1F
100
AcDbEntity
  8
Sichtbare_Kanten_TC_020513_DIN_
  6
Continuous
 62
     7
100
AcDbLine
 10
246.4496430460473
 20
220.896946367425
 30
0.0
 11
240.1172844465923
 21
220.896946367425
 31
0.0
  0
LINE
  5
4E8
330
1F
100
AcDbEntity
  8
Sichtbare_Kanten_TC_020513_DIN_
  6
Continuous
 62
     7
100
AcDbLine
 10
212.2411878709793
 20
219.4768122332111
 30
0.0
 11
212.2411878709793
 21
219.396946367425
 31
0.0
  0
LINE
  5
4E9
330
1F
100
AcDbEntity
  8
Sichtbare_Kanten_TC_020513_DIN_
  6
Continuous
 62
     7
100
AcDbLine
 10
241.2411878709793
 20
219.396946367425
 30
0.0
 11
241.2411878709793
 21
219.496946367425
 31
0.0
  0
LINE
  5
4EA
330
1F
100
AcDbEntity
  8
Sichtbare_Kanten_TC_020513_DIN_
  6
Continuous
 62
     7
100
AcDbLine
 10
192.6744624761614
 20
219.396946367425
 30
0.0
 11
192.6744624761614
 21
219.4768122332111
 31
0.0
  0
LINE
  5
4EB
330
1F
100
AcDbEntity
  8
Sichtbare_Kanten_TC_020513_DIN_
  6
Continuous
 62
     7
100
AcDbLine
 10
163.6744624761614
 20
219.496946367425
 30
0.0
 11
163.6744624761614
 21
219.396946367425
 31
0.0
  0
LINE
  5
4EC
330
1F
100
AcDbEntity
  8
Sichtbare_Kanten_TC_020513_DIN_
  6
Continuous
 62
     7
100
AcDbLine
 10
150.9578251735703
 20
216.9796432454101
 30
0.0
 11
152.3578251735703
 21
216.9796432454101
 31
0.0
  0
LINE
  5
4ED
330
1F
100
AcDbEntity
  8
Sichtbare_Kanten_TC_020513_DIN_
  6
Continuous
 62
     7
100
AcDbLine
 10
150.9578251735703
 20
238.7135836700161
 30
0.0
 11
152.3578251735703
 21
238.7135836700161
 31
0.0
  0
LINE
  5
4EE
330
1F
100
AcDbEntity
  8
Sichtbare_Kanten_TC_020513_DIN_
  6
Continuous
 62
     7
100
AcDbLine
 10
240.1172844465923
 20
219.496946367425
 30
0.0
 11
164.7983659005483
 21
219.496946367425
 31
0.0
  0
LINE
  5
4EF
330
1F
100
AcDbEntity
  8
Sichtbare_Kanten_TC_020513_DIN_
  6
Continuous
 62
     7
100
AcDbLine
 10
192.6744624761614
 20
219.0592914524171
 30
0.0
 11
192.6744624761614
 21
219.396946367425
 31
0.0
  0
LINE
  5
4F0
330
1F
100
AcDbEntity
  8
Sichtbare_Kanten_TC_020513_DIN_
  6
Continuous
 62
     7
100
AcDbLine
 10
163.6744624761614
 20
218.559291452418
 30
0.0
 11
192.1744624761614
 21
218.5592914524171
 31
0.0
  0
LINE
  5
4F1
330
1F
100
AcDbEntity
  8
Sichtbare_Kanten_TC_020513_DIN_
  6
Continuous
 62
     7
100
AcDbLine
 10
240.1172844465923
 20
220.896946367425
 30
0.0
 11
164.7983659005483
 21
220.896946367425
 31
0.0
  0
LINE
  5
4F2
330
1F
100
AcDbEntity
  8
Sichtbare_Kanten_TC_020513_DIN_
  6
Continuous
 62
     7
100
AcDbLine
 10
163.6744624761614
 20
219.396946367425
 30
0.0
 11
163.6744624761614
 21
218.559291452418
 31
0.0
  0
LINE
  5
4F3
330
1F
100
AcDbEntity
  8
Sichtbare_Kanten_TC_020513_DIN_
  6
Continuous
 62
     7
100
AcDbLine
 10
150.9578251735703
 20
222.2969463674251
 30
0.0
 11
150.9578251735703
 21
216.9796432454101
 31
0.0
  0
LINE
  5
4F4
330
1F
100
AcDbEntity
  8
Sichtbare_Kanten_TC_020513_DIN_
  6
Continuous
 62
     7
100
AcDbLine
 10
152.3578251735703
 20
219.8720752368291
 30
0.0
 11
152.3578251735703
 21
216.9796432454101
 31
0.0
  0
LINE
  5
4F5
330
1F
100
AcDbEntity
  8
Sichtbare_Kanten_TC_020513_DIN_
  6
Continuous
 62
     7
100
AcDbLine
 10
150.9578251735703
 20
232.7135836700161
 30
0.0
 11
150.9578251735703
 21
224.7135836700161
 31
0.0
  0
LINE
  5
4F6
330
1F
100
AcDbEntity
  8
Sichtbare_Kanten_TC_020513_DIN_
  6
Continuous
 62
     7
100
AcDbLine
 10
152.3578251735703
 20
232.7135836700161
 30
0.0
 11
152.3578251735703
 21
224.7135836700161
 31
0.0
  0
LINE
  5
4F7
330
1F
100
AcDbEntity
  8
Sichtbare_Kanten_TC_020513_DIN_
  6
Continuous
 62
     7
100
AcDbLine
 10
150.9578251735703
 20
232.7135836700161
 30
0.0
 11
152.3578251735703
 21
232.7135836700161
 31
0.0
  0
LINE
  5
4F8
330
1F
100
AcDbEntity
  8
Sichtbare_Kanten_TC_020513_DIN_
  6
Continuous
 62
     7
100
AcDbLine
 10
150.9578251735703
 20
232.7135836700161
 30
0.0
 11
150.9578251735703
 21
232.8919959199231
 31
0.0
  0
LINE
  5
4F9
330
1F
100
AcDbEntity
  8
Sichtbare_Kanten_TC_020513_DIN_
  6
Continuous
 62
     7
100
AcDbLine
 10
152.3578251735703
 20
232.7135836700161
 30
0.0
 11
152.3578251735703
 21
232.8919959199231
 31
0.0
  0
LINE
  5
4FA
330
1F
100
AcDbEntity
  8
Sichtbare_Kanten_TC_020513_DIN_
  6
Continuous
 62
     7
100
AcDbLine
 10
150.9578251735703
 20
238.0055593835951
 30
0.0
 11
150.9578251735703
 21
232.8919959199231
 31
0.0
  0
LINE
  5
4FB
330
1F
100
AcDbEntity
  8
Sichtbare_Kanten_TC_020513_DIN_
  6
Continuous
 62
     7
100
AcDbLine
 10
152.3578251735703
 20
238.0055593835951
 30
0.0
 11
152.3578251735703
 21
232.8919959199231
 31
0.0
  0
LINE
  5
4FC
330
1F
100
AcDbEntity
  8
Sichtbare_Kanten_TC_020513_DIN_
  6
Continuous
 62
     7
100
AcDbLine
 10
150.9578251735703
 20
238.7135836700161
 30
0.0
 11
150.9578251735703
 21
238.0055593835951
 31
0.0
  0
LINE
  5
4FD
330
1F
100
AcDbEntity
  8
Sichtbare_Kanten_TC_020513_DIN_
  6
Continuous
 62
     7
100
AcDbLine
 10
152.3578251735703
 20
238.7135836700161
 30
0.0
 11
152.3578251735703
 21
238.0055593835951
 31
0.0
  0
LINE
  5
4FE
330
1F
100
AcDbEntity
  8
Sichtbare_Kanten_TC_020513_DIN_
  6
Continuous
 62
     7
100
AcDbLine
 10
150.9578251735703
 20
222.2969463674251
 30
0.0
 11
150.9578251735703
 21
224.7135836700161
 31
0.0
  0
LINE
  5
4FF
330
1F
100
AcDbEntity
  8
Sichtbare_Kanten_TC_020513_DIN_
  6
Continuous
 62
     7
100
AcDbLine
 10
152.3578251735703
 20
222.2969463674251
 30
0.0
 11
152.3578251735703
 21
224.7135836700161
 31
0.0
  0
LINE
  5
500
330
1F
100
AcDbEntity
  8
Sichtbare_Kanten_TC_020513_DIN_
  6
Continuous
 62
     7
100
AcDbLine
 10
157.6744624761614
 20
220.896946367425
 30
0.0
 11
153.7578251735703
 21
220.896946367425
 31
0.0
  0
LINE
  5
501
330
1F
100
AcDbEntity
  8
Sichtbare_Kanten_TC_020513_DIN_
  6
Continuous
 62
     7
100
AcDbLine
 10
157.6744624761614
 20
219.496946367425
 30
0.0
 11
153.7578251735703
 21
219.496946367425
 31
0.0
  0
LINE
  5
502
330
1F
100
AcDbEntity
  8
Sichtbare_Kanten_TC_020513_DIN_
  6
Continuous
 62
     7
100
AcDbLine
 10
158.4660073010933
 20
219.496946367425
 30
0.0
 11
157.6744624761614
 21
219.496946367425
 31
0.0
  0
LINE
  5
503
330
1F
100
AcDbEntity
  8
Sichtbare_Kanten_TC_020513_DIN_
  6
Continuous
 62
     7
100
AcDbLine
 10
158.4660073010933
 20
220.896946367425
 30
0.0
 11
157.6744624761614
 21
220.896946367425
 31
0.0
  0
LINE
  5
504
330
1F
100
AcDbEntity
  8
Sichtbare_Kanten_TC_020513_DIN_
  6
Continuous
 62
     7
100
AcDbLine
 10
158.4660073010933
 20
219.496946367425
 30
0.0
 11
164.7983659005483
 21
219.496946367425
 31
0.0
  0
LINE
  5
505
330
1F
100
AcDbEntity
  8
Sichtbare_Kanten_TC_020513_DIN_
  6
Continuous
 62
     7
100
AcDbLine
 10
158.4660073010933
 20
220.896946367425
 30
0.0
 11
164.7983659005483
 21
220.896946367425
 31
0.0
  0
ARC
  5
506
330
1F
100
AcDbEntity
  8
Stich_1-Linien_TC_020513_DIN_
  6
DASHED_SPACE
 62
     7
100
AcDbCircle
 10
398.5693982010072
 20
220.7135836700161
 30
0.0
 40
48.93394997172021
100
AcDbArc
 50
0.0
 51
46.40647191455545
  0
ARC
  5
507
330
1F
100
AcDbEntity
  8
Sichtbare_Kanten_TC_020513_DIN_
  6
Continuous
 62
     7
100
AcDbCircle
 10
360.8193982010193
 20
238.7135836700161
 30
0.0
 40
0.9999999999998694
100
AcDbArc
 50
194.2932903099152
 51
270.0
  0
ARC
  5
508
330
1F
100
AcDbEntity
  8
Sichtbare_Kanten_TC_020513_DIN_
  6
Continuous
 62
     7
100
AcDbCircle
 10
369.3193982010204
 20
246.0173105941951
 30
0.0
 40
0.5
100
AcDbArc
 50
0.0
 51
83.00000000008161
  0
ARC
  5
509
330
1F
100
AcDbEntity
  8
Sichtbare_Kanten_TC_020513_DIN_
  6
Continuous
 62
     7
100
AcDbCircle
 10
355.3193982010093
 20
259.213583670016
 30
0.0
 40
1.0
100
AcDbArc
 50
180.0
 51
270.0
  0
ARC
  5
50A
330
1F
100
AcDbEntity
  8
Sichtbare_Kanten_TC_020513_DIN_
  6
Continuous
 62
     7
100
AcDbCircle
 10
355.3193982010093
 20
297.213583670016
 30
0.0
 40
1.0
100
AcDbArc
 50
90.0
 51
180.0
  0
ARC
  5
50B
330
1F
100
AcDbEntity
  8
Sichtbare_Kanten_TC_020513_DIN_
  6
Continuous
 62
     7
100
AcDbCircle
 10
406.3873604958804
 20
243.2135836700161
 30
0.0
 40
0.4999999999996255
100
AcDbArc
 50
325.2685345841513
 51
20.2685345842712
  0
ARC
  5
50C
330
1F
100
AcDbEntity
  8
Sichtbare_Kanten_TC_020513_DIN_
  6
Continuous
 62
     7
100
AcDbCircle
 10
401.5693982010072
 20
244.7135836700161
 30
0.0
 40
4.499999999999961
100
AcDbArc
 50
20.26853458426562
 51
118.9550243718619
  0
ARC
  5
50D
330
1F
100
AcDbEntity
  8
Sichtbare_Kanten_TC_020513_DIN_
  6
Continuous
 62
     7
100
AcDbCircle
 10
397.3091165201794
 20
252.4135836700161
 30
0.0
 40
4.299999999999926
100
AcDbArc
 50
90.0
 51
298.9550243718535
  0
ARC
  5
50E
330
1F
100
AcDbEntity
  8
Sichtbare_Kanten_TC_020513_DIN_
  6
Continuous
 62
     7
100
AcDbCircle
 10
405.3091165201794
 20
221.7135836700161
 30
0.0
 40
34.99999999999969
100
AcDbArc
 50
58.50330715785396
 51
90.0
  0
ARC
  5
50F
330
1F
100
AcDbEntity
  8
Sichtbare_Kanten_TC_020513_DIN_
  6
Continuous
 62
     7
100
AcDbCircle
 10
425.5693982010072
 20
240.0745690050111
 30
0.0
 40
0.999999999999932
100
AcDbArc
 50
218.3440606647023
 51
270.0
  0
ARC
  5
510
330
1F
100
AcDbEntity
  8
Sichtbare_Kanten_TC_020513_DIN_
  6
Continuous
 62
     7
100
AcDbCircle
 10
421.5693982010072
 20
242.7135836700161
 30
0.0
 40
0.4999999999998399
100
AcDbArc
 50
38.34406066455805
 51
128.344060664645
  0
ARC
  5
511
330
1F
100
AcDbEntity
  8
Sichtbare_Kanten_TC_020513_DIN_
  6
Continuous
 62
     7
100
AcDbCircle
 10
411.4556413117733
 20
234.7135836700161
 30
0.0
 40
0.5000000000003632
100
AcDbArc
 50
128.3440606646601
 51
174.9999999999822
  0
ARC
  5
512
330
1F
100
AcDbEntity
  8
Sichtbare_Kanten_TC_020513_DIN_
  6
Continuous
 62
     7
100
AcDbCircle
 10
362.8193982010173
 20
243.7135836700161
 30
0.0
 40
1.0
100
AcDbArc
 50
90.0
 51
180.0
  0
ARC
  5
513
330
1F
100
AcDbEntity
  8
Sichtbare_Kanten_TC_020513_DIN_
  6
Continuous
 62
     7
100
AcDbCircle
 10
362.8193982010173
 20
214.2135836700161
 30
0.0
 40
1.0
100
AcDbArc
 50
180.0
 51
270.0
  0
ARC
  5
514
330
1F
100
AcDbEntity
  8
Sichtbare_Kanten_TC_020513_DIN_
  6
Continuous
 62
     7
100
AcDbCircle
 10
401.5693982010045
 20
195.103583670016
 30
0.0
 40
15.14000000000067
100
AcDbArc
 50
0.0
 51
180.0
  0
ARC
  5
515
330
1F
100
AcDbEntity
  8
Sichtbare_Kanten_TC_020513_DIN_
  6
Continuous
 62
     7
100
AcDbCircle
 10
425.3317432860032
 20
219.396946367425
 30
0.0
 40
0.1000000000000227
100
AcDbArc
 50
90.0
 51
180.0
  0
ARC
  5
516
330
1F
100
AcDbEntity
  8
Sichtbare_Kanten_TC_020513_DIN_
  6
Continuous
 62
     7
100
AcDbCircle
 10
425.3317432860032
 20
219.396946367425
 30
0.0
 40
1.5
100
AcDbArc
 50
90.0
 51
180.0
  0
ARC
  5
517
330
1F
100
AcDbEntity
  8
Sichtbare_Kanten_TC_020513_DIN_
  6
Continuous
 62
     7
100
AcDbCircle
 10
395.0693982010072
 20
218.2135836700161
 30
0.0
 40
0.5
100
AcDbArc
 50
180.0
 51
251.6923269006977
  0
ARC
  5
518
330
1F
100
AcDbEntity
  8
Sichtbare_Kanten_TC_020513_DIN_
  6
Continuous
 62
     7
100
AcDbCircle
 10
399.6241324157223
 20
231.9796432454101
 30
0.0
 40
15.00000000000049
100
AcDbArc
 50
251.6923269007149
 51
334.1179484035671
  0
ARC
  5
519
330
1F
100
AcDbEntity
  8
Sichtbare_Kanten_TC_020513_DIN_
  6
Continuous
 62
     7
100
AcDbCircle
 10
413.5693982010072
 20
225.2135836700161
 30
0.0
 40
0.5
100
AcDbArc
 50
90.0
 51
154.1179484035955
  0
ARC
  5
51A
330
1F
100
AcDbEntity
  8
Sichtbare_Kanten_TC_020513_DIN_
  6
Continuous
 62
     7
100
AcDbCircle
 10
424.3693982010074
 20
224.7135836700161
 30
0.0
 40
1.0
100
AcDbArc
 50
0.0
 51
90.0
  0
ARC
  5
51B
330
1F
100
AcDbEntity
  8
Sichtbare_Kanten_TC_020513_DIN_
  6
Continuous
 62
     7
100
AcDbCircle
 10
424.3693982010074
 20
224.7135836700161
 30
0.0
 40
8.0
100
AcDbArc
 50
0.0
 51
90.0
  0
ARC
  5
51C
330
1F
100
AcDbEntity
  8
Sichtbare_Kanten_TC_020513_DIN_
  6
Continuous
 62
     7
100
AcDbCircle
 10
411.5693982010072
 20
233.2135836700161
 30
0.0
 40
0.5000000000004117
100
AcDbArc
 50
220.0290181765012
 51
270.0
  0
ARC
  5
51D
330
1F
100
AcDbEntity
  8
Sichtbare_Kanten_TC_020513_DIN_
  6
Continuous
 62
     7
100
AcDbCircle
 10
395.8721628640752
 20
220.0284859162261
 30
0.0
 40
20.00000000000017
100
AcDbArc
 50
40.02901817645193
 51
64.00779443620964
  0
ARC
  5
51E
330
1F
100
AcDbEntity
  8
Sichtbare_Kanten_TC_020513_DIN_
  6
Continuous
 62
     7
100
AcDbCircle
 10
401.5693982010072
 20
231.7135836700161
 30
0.0
 40
6.999999999999787
100
AcDbArc
 50
64.00779443621244
 51
180.0
  0
ARC
  5
51F
330
1F
100
AcDbEntity
  8
Sichtbare_Kanten_TC_020513_DIN_
  6
Continuous
 62
     7
100
AcDbCircle
 10
244.7078251735703
 20
295.213583670016
 30
0.0
 40
6.0
100
AcDbArc
 50
0.0
 51
90.0
  0
ARC
  5
520
330
1F
100
AcDbEntity
  8
Sichtbare_Kanten_TC_020513_DIN_
  6
Continuous
 62
     7
100
AcDbCircle
 10
244.7078251735703
 20
261.213583670016
 30
0.0
 40
6.000000000000028
100
AcDbArc
 50
270.0
 51
0.0
  0
ARC
  5
521
330
1F
100
AcDbEntity
  8
Sichtbare_Kanten_TC_020513_DIN_
  6
Continuous
 62
     7
100
AcDbCircle
 10
160.2078251735703
 20
261.213583670016
 30
0.0
 40
5.0
100
AcDbArc
 50
180.0
 51
270.0
  0
ARC
  5
522
330
1F
100
AcDbEntity
  8
Sichtbare_Kanten_TC_020513_DIN_
  6
Continuous
 62
     7
100
AcDbCircle
 10
160.2078251735703
 20
295.213583670016
 30
0.0
 40
5.0
100
AcDbArc
 50
90.0
 51
180.0
  0
ARC
  5
523
330
1F
100
AcDbEntity
  8
Sichtbare_Kanten_TC_020513_DIN_
  6
Continuous
 62
     7
100
AcDbCircle
 10
160.2078251735703
 20
261.213583670016
 30
0.0
 40
6.0
100
AcDbArc
 50
180.0
 51
270.0
  0
ARC
  5
524
330
1F
100
AcDbEntity
  8
Sichtbare_Kanten_TC_020513_DIN_
  6
Continuous
 62
     7
100
AcDbCircle
 10
160.2078251735703
 20
295.213583670016
 30
0.0
 40
6.0
100
AcDbArc
 50
90.0
 51
180.0
  0
ARC
  5
525
330
1F
100
AcDbEntity
  8
Sichtbare_Kanten_TC_020513_DIN_
  6
Continuous
 62
     7
100
AcDbCircle
 10
244.7078251735703
 20
261.213583670016
 30
0.0
 40
5.0
100
AcDbArc
 50
270.0
 51
0.0
  0
ARC
  5
526
330
1F
100
AcDbEntity
  8
Sichtbare_Kanten_TC_020513_DIN_
  6
Continuous
 62
     7
100
AcDbCircle
 10
244.7078251735703
 20
295.213583670016
 30
0.0
 40
5.0
100
AcDbArc
 50
0.0
 51
90.0
  0
ARC
  5
527
330
1F
100
AcDbEntity
  8
Sichtbare_Kanten_TC_020513_DIN_
  6
Continuous
 62
     7
100
AcDbCircle
 10
244.7078251735703
 20
295.213583670016
 30
0.0
 40
1.0
100
AcDbArc
 50
0.0
 51
90.0
  0
ARC
  5
528
330
1F
100
AcDbEntity
  8
Sichtbare_Kanten_TC_020513_DIN_
  6
Continuous
 62
     7
100
AcDbCircle
 10
160.2078251735703
 20
295.213583670016
 30
0.0
 40
1.0
100
AcDbArc
 50
90.0
 51
180.0
  0
ARC
  5
529
330
1F
100
AcDbEntity
  8
Sichtbare_Kanten_TC_020513_DIN_
  6
Continuous
 62
     7
100
AcDbCircle
 10
160.2078251735703
 20
261.213583670016
 30
0.0
 40
1.0
100
AcDbArc
 50
180.0
 51
270.0
  0
ARC
  5
52A
330
1F
100
AcDbEntity
  8
Sichtbare_Kanten_TC_020513_DIN_
  6
Continuous
 62
     7
100
AcDbCircle
 10
244.7078251735703
 20
261.213583670016
 30
0.0
 40
1.0
100
AcDbArc
 50
270.0
 51
0.0
  0
ARC
  5
52B
330
1F
100
AcDbEntity
  8
Sichtbare_Kanten_TC_020513_DIN_
  6
Continuous
 62
     7
100
AcDbCircle
 10
252.0578251735703
 20
221.5759287550081
 30
0.0
 40
1.5
100
AcDbArc
 50
180.0
 51
206.9141492018559
  0
ARC
  5
52C
330
1F
100
AcDbEntity
  8
Sichtbare_Kanten_TC_020513_DIN_
  6
Continuous
 62
     7
100
AcDbCircle
 10
252.0578251735703
 20
221.5759287550081
 30
0.0
 40
0.0999999999999943
100
AcDbArc
 50
180.0
 51
270.0
  0
ARC
  5
52D
330
1F
100
AcDbEntity
  8
Sichtbare_Kanten_TC_020513_DIN_
  6
Continuous
 62
     7
100
AcDbCircle
 10
152.8578251735703
 20
221.5759287550081
 30
0.0
 40
1.499999999999792
100
AcDbArc
 50
333.0858507981441
 51
0.0
  0
ARC
  5
52E
330
1F
100
AcDbEntity
  8
Sichtbare_Kanten_TC_020513_DIN_
  6
Continuous
 62
     7
100
AcDbCircle
 10
152.8578251735703
 20
221.5759287550081
 30
0.0
 40
0.0999999999999943
100
AcDbArc
 50
270.0
 51
0.0
  0
ARC
  5
52F
330
1F
100
AcDbEntity
  8
Sichtbare_Kanten_TC_020513_DIN_
  6
Continuous
 62
     7
100
AcDbCircle
 10
165.2244624761613
 20
238.8245690050111
 30
0.0
 40
0.2499999999996516
100
AcDbArc
 50
14.99999999984727
 51
90.0
  0
ARC
  5
530
330
1F
100
AcDbEntity
  8
Sichtbare_Kanten_TC_020513_DIN_
  6
Continuous
 62
     7
100
AcDbCircle
 10
157.7244624761613
 20
248.0745690050111
 30
0.0
 40
0.9999999999996677
100
AcDbArc
 50
39.99999999997534
 51
90.0
  0
ARC
  5
531
330
1F
100
AcDbEntity
  8
Sichtbare_Kanten_TC_020513_DIN_
  6
Continuous
 62
     7
100
AcDbCircle
 10
160.3352770548253
 20
248.0745690050111
 30
0.0
 40
1.00000000000038
100
AcDbArc
 50
220.000000000024
 51
270.0
  0
ARC
  5
532
330
1F
100
AcDbEntity
  8
Sichtbare_Kanten_TC_020513_DIN_
  6
Continuous
 62
     7
100
AcDbCircle
 10
165.2244624761613
 20
248.5745690050111
 30
0.0
 40
1.5
100
AcDbArc
 50
270.0
 51
313.7601210289745
  0
ARC
  5
533
330
1F
100
AcDbEntity
  8
Sichtbare_Kanten_TC_020513_DIN_
  6
Continuous
 62
     7
100
AcDbCircle
 10
239.6911878709793
 20
248.5745690050111
 30
0.0
 40
1.500000000000109
100
AcDbArc
 50
226.2398789710254
 51
270.0
  0
ARC
  5
534
330
1F
100
AcDbEntity
  8
Sichtbare_Kanten_TC_020513_DIN_
  6
Continuous
 62
     7
100
AcDbCircle
 10
244.5803732923154
 20
248.0745690050111
 30
0.0
 40
1.0
100
AcDbArc
 50
270.0
 51
319.9999999999729
  0
ARC
  5
535
330
1F
100
AcDbEntity
  8
Sichtbare_Kanten_TC_020513_DIN_
  6
Continuous
 62
     7
100
AcDbCircle
 10
247.1911878709793
 20
248.0745690050111
 30
0.0
 40
1.0
100
AcDbArc
 50
90.0
 51
140.0000000000205
  0
ARC
  5
536
330
1F
100
AcDbEntity
  8
Sichtbare_Kanten_TC_020513_DIN_
  6
Continuous
 62
     7
100
AcDbCircle
 10
239.6911878709793
 20
238.8245690050111
 30
0.0
 40
0.25
100
AcDbArc
 50
90.0
 51
165.000000000146
  0
ARC
  5
537
330
1F
100
AcDbEntity
  8
Sichtbare_Kanten_TC_020513_DIN_
  6
Continuous
 62
     7
100
AcDbCircle
 10
201.4578251735703
 20
241.089064305774
 30
0.0
 40
0.25
100
AcDbArc
 50
180.0
 51
0.0
  0
ARC
  5
538
330
1F
100
AcDbEntity
  8
Sichtbare_Kanten_TC_020513_DIN_
  6
Continuous
 62
     7
100
AcDbCircle
 10
201.4578251735703
 20
244.5207953419501
 30
0.0
 40
0.2500000000001622
100
AcDbArc
 50
35.90957617710764
 51
180.0
  0
ARC
  5
539
330
1F
100
AcDbEntity
  8
Sichtbare_Kanten_TC_020513_DIN_
  6
Continuous
 62
     7
100
AcDbCircle
 10
203.4578251735703
 20
239.9063719980811
 30
0.0
 40
0.25
100
AcDbArc
 50
180.0
 51
0.0
  0
ARC
  5
53A
330
1F
100
AcDbEntity
  8
Sichtbare_Kanten_TC_020513_DIN_
  6
Continuous
 62
     7
100
AcDbCircle
 10
203.4578251735703
 20
244.5207953419501
 30
0.0
 40
0.25
100
AcDbArc
 50
0.0
 51
144.0904238228847
  0
ARC
  5
53B
330
1F
100
AcDbEntity
  8
Sichtbare_Kanten_TC_020513_DIN_
  6
Continuous
 62
     7
100
AcDbCircle
 10
200.4078251735704
 20
243.9150261111811
 30
0.0
 40
0.25
100
AcDbArc
 50
0.0
 51
180.0
  0
ARC
  5
53C
330
1F
100
AcDbEntity
  8
Sichtbare_Kanten_TC_020513_DIN_
  6
Continuous
 62
     7
100
AcDbCircle
 10
200.4078251735704
 20
240.51214122885
 30
0.0
 40
0.25
100
AcDbArc
 50
180.0
 51
240.0183606311789
  0
ARC
  5
53D
330
1F
100
AcDbEntity
  8
Sichtbare_Kanten_TC_020513_DIN_
  6
Continuous
 62
     7
100
AcDbCircle
 10
202.4578251735703
 20
239.3294489211581
 30
0.0
 40
0.2499999999996816
100
AcDbArc
 50
240.0183606312089
 51
60.018360631017
  0
ARC
  5
53E
330
1F
100
AcDbEntity
  8
Sichtbare_Kanten_TC_020513_DIN_
  6
Continuous
 62
     7
100
AcDbCircle
 10
199.4078251735704
 20
243.3381030342581
 30
0.0
 40
0.25
100
AcDbArc
 50
0.0
 51
180.0
  0
ARC
  5
53F
330
1F
100
AcDbEntity
  8
Sichtbare_Kanten_TC_020513_DIN_
  6
Continuous
 62
     7
100
AcDbCircle
 10
199.4078251735704
 20
241.089064305774
 30
0.0
 40
0.25
100
AcDbArc
 50
180.0
 51
0.0
  0
ARC
  5
540
330
1F
100
AcDbEntity
  8
Sichtbare_Kanten_TC_020513_DIN_
  6
Continuous
 62
     7
100
AcDbCircle
 10
204.4578251735703
 20
243.943872265027
 30
0.0
 40
0.2499999999997981
100
AcDbArc
 50
60.01836063120166
 51
180.0
  0
ARC
  5
541
330
1F
100
AcDbEntity
  8
Sichtbare_Kanten_TC_020513_DIN_
  6
Continuous
 62
     7
100
AcDbCircle
 10
205.4578251735703
 20
243.366949188104
 30
0.0
 40
0.2499999999996078
100
AcDbArc
 50
240.018360631199
 51
60.01836063102676
  0
ARC
  5
542
330
1F
100
AcDbEntity
  8
Sichtbare_Kanten_TC_020513_DIN_
  6
Continuous
 62
     7
100
AcDbCircle
 10
204.4578251735703
 20
240.4832950750041
 30
0.0
 40
0.25
100
AcDbArc
 50
180.0
 51
299.9816393688081
  0
ARC
  5
543
330
1F
100
AcDbEntity
  8
Sichtbare_Kanten_TC_020513_DIN_
  6
Continuous
 62
     7
100
AcDbCircle
 10
205.4578251735703
 20
241.0602181519271
 30
0.0
 40
0.2500000000001645
100
AcDbArc
 50
299.9816393689829
 51
119.981639368687
  0
ARC
  5
544
330
1F
100
AcDbEntity
  8
Sichtbare_Kanten_TC_020513_DIN_
  6
Continuous
 62
     7
100
AcDbCircle
 10
205.4578251735703
 20
242.2135836700161
 30
0.0
 40
0.25
100
AcDbArc
 50
270.0
 51
90.0
  0
ARC
  5
545
330
1F
100
AcDbEntity
  8
Sichtbare_Kanten_TC_020513_DIN_
  6
Continuous
 62
     7
100
AcDbCircle
 10
149.6578251735704
 20
227.7135836700161
 30
0.0
 40
0.7000000000000739
100
AcDbArc
 50
180.0
 51
0.0
  0
ARC
  5
546
330
1F
100
AcDbEntity
  8
Sichtbare_Kanten_TC_020513_DIN_
  6
Continuous
 62
     7
100
AcDbCircle
 10
149.6578251735704
 20
235.7135836700161
 30
0.0
 40
0.6999999999999034
100
AcDbArc
 50
0.0
 51
180.0
  0
ARC
  5
547
330
1F
100
AcDbEntity
  8
Sichtbare_Kanten_TC_020513_DIN_
  6
Continuous
 62
     7
100
AcDbCircle
 10
255.2578251735703
 20
235.7135836700161
 30
0.0
 40
0.700000000000017
100
AcDbArc
 50
0.0
 51
180.0
  0
ARC
  5
548
330
1F
100
AcDbEntity
  8
Sichtbare_Kanten_TC_020513_DIN_
  6
Continuous
 62
     7
100
AcDbCircle
 10
255.2578251735703
 20
227.7135836700161
 30
0.0
 40
0.6999999999999886
100
AcDbArc
 50
180.0
 51
0.0
  0
ARC
  5
549
330
1F
100
AcDbEntity
  8
Sichtbare_Kanten_TC_020513_DIN_
  6
Continuous
 62
     7
100
AcDbCircle
 10
251.1578251735704
 20
222.2969463674251
 30
0.0
 40
1.400000000000119
100
AcDbArc
 50
270.0
 51
0.0
  0
ARC
  5
54A
330
1F
100
AcDbEntity
  8
Sichtbare_Kanten_TC_020513_DIN_
  6
Continuous
 62
     7
100
AcDbCircle
 10
251.1578251735704
 20
222.2969463674251
 30
0.0
 40
2.800000000000097
100
AcDbArc
 50
270.0
 51
0.0
  0
ARC
  5
54B
330
1F
100
AcDbEntity
  8
Sichtbare_Kanten_TC_020513_DIN_
  6
Continuous
 62
     7
100
AcDbCircle
 10
212.7411878709793
 20
219.0592914524171
 30
0.0
 40
0.5
100
AcDbArc
 50
180.0
 51
270.0
  0
ARC
  5
54C
330
1F
100
AcDbEntity
  8
Sichtbare_Kanten_TC_020513_DIN_
  6
Continuous
 62
     7
100
AcDbCircle
 10
153.7578251735703
 20
222.2969463674251
 30
0.0
 40
2.799999999999983
100
AcDbArc
 50
180.0
 51
270.0
  0
ARC
  5
54D
330
1F
100
AcDbEntity
  8
Sichtbare_Kanten_TC_020513_DIN_
  6
Continuous
 62
     7
100
AcDbCircle
 10
153.7578251735703
 20
222.2969463674251
 30
0.0
 40
1.400000000000006
100
AcDbArc
 50
180.0
 51
270.0
  0
ARC
  5
54E
330
1F
100
AcDbEntity
  8
Sichtbare_Kanten_TC_020513_DIN_
  6
Continuous
 62
     7
100
AcDbCircle
 10
192.1744624761614
 20
219.0592914524171
 30
0.0
 40
0.5
100
AcDbArc
 50
270.0
 51
0.0
  0
CIRCLE
  5
54F
330
1F
100
AcDbEntity
  8
Sichtbare_Kanten_TC_020513_DIN_
  6
Continuous
 62
     7
100
AcDbCircle
 10
358.8193982010063
 20
278.213583670016
 30
0.0
 40
4.5
  0
CIRCLE
  5
550
330
1F
100
AcDbEntity
  8
Sichtbare_Kanten_TC_020513_DIN_
  6
Continuous
 62
     7
100
AcDbCircle
 10
401.5693982010072
 20
231.7135836700161
 30
0.0
 40
4.699999999999136
  0
CIRCLE
  5
551
330
1F
100
AcDbEntity
  8
Sichtbare_Kanten_TC_020513_DIN_
  6
Continuous
 62
     7
100
AcDbCircle
 10
401.5693982010045
 20
195.103583670016
 30
0.0
 40
10.39000000000391
  0
CIRCLE
  5
552
330
1F
100
AcDbEntity
  8
Sichtbare_Kanten_TC_020513_DIN_
  6
Continuous
 62
     7
100
AcDbCircle
 10
401.5693982010045
 20
195.103583670016
 30
0.0
 40
13.39000000000067
  0
CIRCLE
  5
553
330
1F
100
AcDbEntity
  8
Sichtbare_Kanten_TC_020513_DIN_
  6
Continuous
 62
     7
100
AcDbCircle
 10
398.5693982010072
 20
220.7135836700161
 30
0.0
 40
1.75
  0
SPLINE
  5
554
330
1F
100
AcDbEntity
  8
Sichtbare_Kanten_TC_020513_DIN_
  6
Continuous
 62
     7
100
AcDbSpline
210
0.0
220
0.0
230
1.0
 70
     8
 71
     3
 72
    19
 73
    15
 74
    13
 42
0.000000001
 43
0.0000000001
 44
0.00000001
 40
0.0
 40
0.0
 40
0.0
 40
0.0
 40
0.322186220536951
 40
0.6443862618341136
 40
0.8094705328393733
 40
0.9745562229277417
 40
1.142463280811616
 40
1.310374909566724
 40
1.480895931773499
 40
1.651417687593662
 40
1.824033462668091
 40
1.996661195040099
 40
2.257865073018897
 40
2.51889498788886
 40
2.51889498788886
 40
2.51889498788886
 40
2.51889498788886
 10
167.6985884708473
 20
231.414355239827
 30
0.0
 10
167.7348021337251
 20
231.3129209191884
 30
0.0
 10
167.8072310264481
 20
231.1100479321533
 30
0.0
 10
167.9566226728816
 20
230.882357488645
 30
0.0
 10
168.0969763497182
 20
230.7161812500861
 30
0.0
 10
168.2153235207737
 20
230.5993644152726
 30
0.0
 10
168.3439722905663
 20
230.4926303726231
 30
0.0
 10
168.4827523028938
 20
230.3962173856925
 30
0.0
 10
168.6298864558534
 20
230.3113581914385
 30
0.0
 10
168.7849368696473
 20
230.238296389013
 30
0.0
 10
168.9460938076994
 20
230.1777944880429
 30
0.0
 10
169.1406673829886
 20
230.1225386974352
 30
0.0
 10
169.369207657377
 20
230.0797952053737
 30
0.0
 10
169.5433819743897
 20
230.0738504686631
 30
0.0
 10
169.6304401234253
 20
230.070879097773
 30
0.0
 11
167.6985884708473
 21
231.414355239827
 31
0.0
 11
167.8188528820435
 21
231.1154565391128
 31
0.0
 11
167.9921360348475
 21
230.8438210903954
 31
0.0
 11
168.0988302475996
 21
230.7178482290214
 31
0.0
 11
168.2162265610524
 21
230.6017819077356
 31
0.0
 11
168.3454194411597
 21
230.4945346230207
 31
0.0
 11
168.4832872507232
 21
230.3986869188349
 31
0.0
 11
168.6309745022918
 21
230.3134466996403
 31
0.0
 11
168.7852035999437
 21
230.2407070621602
 31
0.0
 11
168.9468132911608
 21
230.1800563101528
 31
0.0
 11
169.1128020332199
 21
230.1326424757159
 31
0.0
 11
169.369868120319
 21
230.0863338023705
 31
0.0
 11
169.6304401234253
 21
230.070879097773
 31
0.0
  0
SPLINE
  5
555
330
1F
100
AcDbEntity
  8
Sichtbare_Kanten_TC_020513_DIN_
  6
Continuous
 62
     7
100
AcDbSpline
210
0.0
220
0.0
230
1.0
 70
     8
 71
     3
 72
    19
 73
    15
 74
    13
 42
0.000000001
 43
0.0000000001
 44
0.00000001
 40
0.0
 40
0.0
 40
0.0
 40
0.0
 40
0.322186220536951
 40
0.6443862618341136
 40
0.8094705328393983
 40
0.9745562229277667
 40
1.142463280811663
 40
1.310374909566745
 40
1.480895931773482
 40
1.651417687593682
 40
1.824033462668104
 40
1.996661195040132
 40
2.257865073018925
 40
2.518894987888856
 40
2.518894987888856
 40
2.518894987888856
 40
2.518894987888856
 10
167.6985884708473
 20
230.82268967339
 30
0.0
 10
167.7348021337251
 20
230.7212553527515
 30
0.0
 10
167.8072310264481
 20
230.5183823657162
 30
0.0
 10
167.9566226728815
 20
230.290691922208
 30
0.0
 10
168.0969763497182
 20
230.1245156836491
 30
0.0
 10
168.2153235207736
 20
230.0076988488354
 30
0.0
 10
168.3439722905663
 20
229.900964806186
 30
0.0
 10
168.4827523028939
 20
229.8045518192556
 30
0.0
 10
168.6298864558535
 20
229.7196926250015
 30
0.0
 10
168.7849368696474
 20
229.646630822576
 30
0.0
 10
168.9460938076994
 20
229.5861289216058
 30
0.0
 10
169.1406673829887
 20
229.5308731309982
 30
0.0
 10
169.369207657377
 20
229.4881296389367
 30
0.0
 10
169.5433819743897
 20
229.4821849022262
 30
0.0
 10
169.6304401234253
 20
229.4792135313361
 30
0.0
 11
167.6985884708473
 21
230.82268967339
 31
0.0
 11
167.8188528820435
 21
230.5237909726758
 31
0.0
 11
167.9921360348475
 21
230.2521555239584
 31
0.0
 11
168.0988302475996
 21
230.1261826625843
 31
0.0
 11
168.2162265610524
 21
230.0101163412985
 31
0.0
 11
168.3454194411597
 21
229.9028690565836
 31
0.0
 11
168.4832872507232
 21
229.8070213523979
 31
0.0
 11
168.6309745022918
 21
229.7217811332034
 31
0.0
 11
168.7852035999437
 21
229.6490414957232
 31
0.0
 11
168.9468132911608
 21
229.5883907437158
 31
0.0
 11
169.1128020332199
 21
229.5409769092789
 31
0.0
 11
169.369868120319
 21
229.4946682359335
 31
0.0
 11
169.6304401234253
 21
229.4792135313361
 31
0.0
  0
SPLINE
  5
556
330
1F
100
AcDbEntity
  8
Sichtbare_Kanten_TC_020513_DIN_
  6
Continuous
 62
     7
100
AcDbSpline
210
0.0
220
0.0
230
1.0
 70
     8
 71
     3
 72
    19
 73
    15
 74
    13
 42
0.000000001
 43
0.0000000001
 44
0.00000001
 40
0.0
 40
0.0
 40
0.0
 40
0.0
 40
0.3474606674150325
 40
0.6949175350301878
 40
0.8665696488952594
 40
1.038221191656238
 40
1.207484861390447
 40
1.376745209810028
 40
1.543251855853918
 40
1.709751057160575
 40
1.873443934534015
 40
2.037147336109903
 40
2.278188137688129
 40
2.518986528946827
 40
2.518986528946827
 40
2.518986528946827
 40
2.518986528946827
 10
235.2852102237154
 20
229.4792135313361
 30
0.0
 10
235.4011419936283
 20
229.4844704937281
 30
0.0
 10
235.6330042644771
 20
229.494984375697
 30
0.0
 10
235.9150760706481
 20
229.5660576934098
 30
0.0
 10
236.130860172482
 20
229.6466246692285
 30
0.0
 10
236.2855969207955
 20
229.7196184824733
 30
0.0
 10
236.4330737096537
 20
229.8046646525193
 30
0.0
 10
236.5715018159738
 20
229.9008243793853
 30
0.0
 10
236.7005121038056
 20
230.0078560737538
 30
0.0
 10
236.8184333938941
 20
230.1243633853284
 30
0.0
 10
236.9250971194359
 20
230.2500998504642
 30
0.0
 10
237.0339722897652
 20
230.4053360089133
 30
0.0
 10
237.1391060060367
 20
230.5943584641637
 30
0.0
 10
237.1910853075468
 20
230.7466048000125
 30
0.0
 10
237.2170618762943
 20
230.82268967339
 30
0.0
 11
235.2852102237154
 21
229.4792135313361
 31
0.0
 11
235.6315895430059
 21
229.5066048175757
 31
0.0
 11
235.9692505103672
 21
229.588527626132
 31
0.0
 11
236.1299591295153
 21
229.6488367305331
 31
0.0
 11
236.2852102237158
 21
229.7220579709674
 31
0.0
 11
236.4318075316752
 21
229.8066713232122
 31
0.0
 11
236.570785443089
 21
229.9032850173801
 31
0.0
 11
236.6988950143386
 21
230.0096447897123
 31
0.0
 11
236.8172991099541
 21
230.1267022732709
 31
0.0
 11
236.9230954152889
 21
230.2516122416437
 31
0.0
 11
237.0172610312846
 21
230.3855213183736
 31
0.0
 11
237.1325154490119
 21
230.597221786689
 31
0.0
 11
237.2170618762943
 21
230.82268967339
 31
0.0
  0
SPLINE
  5
557
330
1F
100
AcDbEntity
  8
Sichtbare_Kanten_TC_020513_DIN_
  6
Continuous
 62
     7
100
AcDbSpline
210
0.0
220
0.0
230
1.0
 70
     8
 71
     3
 72
    19
 73
    15
 74
    13
 42
0.000000001
 43
0.0000000001
 44
0.00000001
 40
0.0
 40
0.0
 40
0.0
 40
0.0
 40
0.3474606674149781
 40
0.6949175350301819
 40
0.8665696488953002
 40
1.038221191656253
 40
1.207484861390504
 40
1.376745209809946
 40
1.543251855853559
 40
1.709751057159994
 40
1.873443934533544
 40
2.037147336109652
 40
2.278188137688037
 40
2.518986528946708
 40
2.518986528946708
 40
2.518986528946708
 40
2.518986528946708
 10
235.2852102237154
 20
230.070879097773
 30
0.0
 10
235.4011419936282
 20
230.0761360601651
 30
0.0
 10
235.6330042644772
 20
230.086649942134
 30
0.0
 10
235.915076070648
 20
230.1577232598466
 30
0.0
 10
236.130860172482
 20
230.2382902356655
 30
0.0
 10
236.2855969207954
 20
230.3112840489102
 30
0.0
 10
236.4330737096537
 20
230.3963302189564
 30
0.0
 10
236.5715018159736
 20
230.4924899458223
 30
0.0
 10
236.7005121038052
 20
230.5995216401909
 30
0.0
 10
236.8184333938933
 20
230.7160289517654
 30
0.0
 10
236.9250971194354
 20
230.8417654169012
 30
0.0
 10
237.033972289765
 20
230.9970015753502
 30
0.0
 10
237.1391060060367
 20
231.1860240306007
 30
0.0
 10
237.1910853075468
 20
231.3382703664496
 30
0.0
 10
237.2170618762943
 20
231.414355239827
 30
0.0
 11
235.2852102237154
 21
230.070879097773
 31
0.0
 11
235.6315895430058
 21
230.0982703840126
 31
0.0
 11
235.9692505103672
 21
230.1801931925689
 31
0.0
 11
236.1299591295153
 21
230.2405022969701
 31
0.0
 11
236.2852102237158
 21
230.3137235374044
 31
0.0
 11
236.4318075316752
 21
230.3983368896493
 31
0.0
 11
236.5707854430888
 21
230.4949505838171
 31
0.0
 11
236.6988950143381
 21
230.6013103561493
 31
0.0
 11
236.8172991099534
 21
230.7183678397079
 31
0.0
 11
236.9230954152883
 21
230.8432778080806
 31
0.0
 11
237.0172610312844
 21
230.9771868848106
 31
0.0
 11
237.1325154490119
 21
231.188887353126
 31
0.0
 11
237.2170618762943
 21
231.414355239827
 31
0.0
  0
LWPOLYLINE
  5
558
330
1F
100
AcDbEntity
  8
Sichtbare_Kanten_TC_020513_DIN_
  6
Continuous
 62
     7
100
AcDbPolyline
 90
       25
 70
     0
 43
0.0
 10
429.8184402351604
 20
247.9644300559721
 10
429.8135455017324
 20
247.9505385974601
 10
429.8082478409043
 20
247.9348911861141
 10
429.8026306991802
 20
247.9175831893641
 10
429.7967846756213
 20
247.8987147430141
 10
429.7907932167283
 20
247.8783835986811
 10
429.7847493057483
 20
247.8566875079831
 10
429.7787363891833
 20
247.833726606722
 10
429.7728426819073
 20
247.8095974544241
 10
429.7671563987964
 20
247.784397802706
 10
429.7617657547222
 20
247.7582289794641
 10
429.7567589645613
 20
247.731186352129
 10
429.7522766952744
 20
247.7039398769101
 10
429.7484858398663
 20
247.678052387591
 10
429.7453363304363
 20
247.653615675326
 10
429.7427685623394
 20
247.6306392768581
 10
429.7407205467454
 20
247.60913272893
 10
429.7391374473792
 20
247.589107952471
 10
429.7379596595994
 20
247.570572100039
 10
429.7371228103863
 20
247.5535359004691
 10
429.7365744476543
 20
247.5380100825981
 10
429.7362501983872
 20
247.524004183169
 10
429.7360904579392
 20
247.5115289310171
 10
429.7360403900374
 20
247.500592670794
 10
429.7360356216653
 20
247.491206131335
  0
LWPOLYLINE
  5
559
330
1F
100
AcDbEntity
  8
Sichtbare_Kanten_TC_020513_DIN_
  6
Continuous
 62
     7
100
AcDbPolyline
 90
       25
 70
     0
 43
0.0
 10
431.1360366707082
 20
248.8912059882841
 10
431.0643895035024
 20
248.889371357317
 10
430.9930761223073
 20
248.883887729998
 10
430.9222300415273
 20
248.874782524462
 10
430.8519871597524
 20
248.8620867351251
 10
430.7824881439434
 20
248.845828972216
 10
430.7138665085073
 20
248.826036653872
 10
430.6462629204024
 20
248.802740774508
 10
430.5798132782212
 20
248.775969944353
 10
430.5147726898423
 20
248.74581118619
 10
430.4514892463914
 20
248.712432585116
 10
430.3900797729722
 20
248.6759211639121
 10
430.3306610946883
 20
248.6363567928031
 10
430.2733452682722
 20
248.593822918292
 10
430.2182467346423
 20
248.5484017947871
 10
430.1654775505293
 20
248.5001744846061
 10
430.1151521568523
 20
248.4492244342521
 10
430.0674374466172
 20
248.3956946948721
 10
430.0226028328174
 20
248.339891634341
 10
429.9807341461413
 20
248.2819523433401
 10
429.9419076805344
 20
248.2219972232541
 10
429.9061925773852
 20
248.1601478675561
 10
429.8736603622664
 20
248.0965222934441
 10
429.8443849449383
 20
248.0312432864861
 10
429.8184402351604
 20
247.9644300559721
  0
LWPOLYLINE
  5
55A
330
1F
100
AcDbEntity
  8
Sichtbare_Kanten_TC_020513_DIN_
  6
Continuous
 62
     7
100
AcDbPolyline
 90
       25
 70
     0
 43
0.0
 10
428.8267166977154
 20
249.0745689490991
 10
428.8924296264873
 20
249.1663863280971
 10
428.9618618850933
 20
249.255565605517
 10
429.0349395637742
 20
249.34198757207
 10
429.1115482216113
 20
249.4254901031211
 10
429.1913659935223
 20
249.5057191470821
 10
429.2742450599905
 20
249.582554302569
 10
429.3600733642803
 20
249.65591212308
 10
429.4487388496624
 20
249.725713930483
 10
429.5401318435894
 20
249.791876278277
 10
429.6341379051434
 20
249.8543181041431
 10
429.7306473617783
 20
249.912957153674
 10
429.8295457725754
 20
249.96771236455
 10
429.9307234649883
 20
250.018501482363
 10
430.0339897041553
 20
250.065210066195
 10
430.1389916305774
 20
250.107673607226
 10
430.2455814247363
 20
250.1458420375541
 10
430.3536303405994
 20
250.1796700576501
 10
430.4630024795762
 20
250.209114752169
 10
430.5735524063344
 20
250.234127245303
 10
430.6849701767193
 20
250.254634819384
 10
430.7970650558704
 20
250.270612440462
 10
430.9097011451953
 20
250.2820434192371
 10
431.0227377777334
 20
250.2889134505941
 10
431.1360366707082
 20
250.291205845232
  0
LWPOLYLINE
  5
55B
330
1F
100
AcDbEntity
  8
Sichtbare_Kanten_TC_020513_DIN_
  6
Continuous
 62
     7
100
AcDbPolyline
 90
       25
 70
     0
 43
0.0
 10
429.7360356216653
 20
237.5143917421061
 10
429.7362668876873
 20
237.4889214853
 10
429.7369630699383
 20
237.463469705935
 10
429.7381194000474
 20
237.4380435565671
 10
429.7397382621992
 20
237.4126484016141
 10
429.7418172722092
 20
237.387291393633
 10
429.7443564300762
 20
237.3619784930901
 10
429.7473557358013
 20
237.3367156604481
 10
429.7508128051983
 20
237.311509452219
 10
429.7547300224534
 20
237.2863664249141
 10
429.7591050033794
 20
237.26129194295
 10
429.7639353637923
 20
237.236293754931
 10
429.7692211036914
 20
237.2113766292291
 10
429.7749598388892
 20
237.1865596393301
 10
429.7811468010174
 20
237.161861858721
 10
429.7877796058884
 20
237.1372886518201
 10
429.7948558693164
 20
237.1128459790901
 10
429.8023755913004
 20
237.088539800997
 10
429.8103340034714
 20
237.0643766740521
 10
429.8187287216414
 20
237.0403619626721
 10
429.8275621299973
 20
237.0165016273221
 10
429.8368270759803
 20
236.992802224512
 10
429.8465235595933
 20
236.969269118662
 10
429.8566491966473
 20
236.945908270235
 10
429.8672039871443
 20
236.9227262357431
  0
LWPOLYLINE
  5
55C
330
1F
100
AcDbEntity
  8
Sichtbare_Kanten_TC_020513_DIN_
  6
Continuous
 62
     7
100
AcDbPolyline
 90
       25
 70
     0
 43
0.0
 10
428.5983736877662
 20
236.33106072938
 10
428.5772641067734
 20
236.377425096388
 10
428.5570128326643
 20
236.4241461971951
 10
428.5376174812542
 20
236.4712124088961
 10
428.5190875892864
 20
236.518611512537
 10
428.5014231567612
 20
236.5663318852141
 10
428.4846313362342
 20
236.6143616059971
 10
428.4687145118943
 20
236.662688157912
 10
428.4536774521104
 20
236.711300216074
 10
428.4395249252544
 20
236.7601855615331
 10
428.4262593155132
 20
236.8093319753361
 10
428.4138853912583
 20
236.8587275365551
 10
428.4024055366743
 20
236.9083609203061
 10
428.3918340568763
 20
236.9581951717091
 10
428.3821733360513
 20
237.008192143793
 10
428.3734257583843
 20
237.058340511675
 10
428.3655913238753
 20
237.108627162333
 10
428.3586771850813
 20
237.1590389827451
 10
428.3526785736314
 20
237.209564648028
 10
428.3475978737102
 20
237.2601910451611
 10
428.3434398536903
 20
237.310905061121
 10
428.3402021293863
 20
237.361694774981
 10
428.3378894691692
 20
237.4125476697641
 10
428.3364994888533
 20
237.4634506324481
 10
428.3360345726243
 20
237.5143917421061
  0
LWPOLYLINE
  5
55D
330
1F
100
AcDbEntity
  8
Sichtbare_Kanten_TC_020513_DIN_
  6
Continuous
 62
     7
100
AcDbPolyline
 90
       25
 70
     0
 43
0.0
 10
428.4285338287542
 20
249.0745689490991
 10
428.3807762031744
 20
249.0751077750881
 10
428.3324869041634
 20
249.0767278293331
 10
428.2836969261354
 20
249.0794338802061
 10
428.2344420318792
 20
249.0832306960781
 10
428.1847579841802
 20
249.0881206611351
 10
428.1346805458253
 20
249.094109735842
 10
428.0842383270452
 20
249.1012014964771
 10
428.0334718589974
 20
249.109400711413
 10
427.9824121360963
 20
249.1187109569271
 10
427.9311259155462
 20
249.129132233019
 10
427.8808744316283
 20
249.1404142001821
 10
427.8323514824102
 20
249.15232797658
 10
427.7856524353214
 20
249.1647376636221
 10
427.7408702736094
 20
249.1775097469051
 10
427.6981003647044
 20
249.19050951993
 10
427.6574356918524
 20
249.2036022762021
 10
427.6189716224855
 20
249.2166545013151
 10
427.5828059082224
 20
249.229530296679
 10
427.5490267639353
 20
249.24209614789
 10
427.5177319412422
 20
249.2542161563591
 10
427.4890168075752
 20
249.2657579997731
 10
427.4629743461793
 20
249.2765857795431
 10
427.4396975403023
 20
249.2865659812651
 10
427.4192817573734
 20
249.29556389844
  0
LWPOLYLINE
  5
55E
330
1F
100
AcDbEntity
  8
Sichtbare_Kanten_TC_020513_DIN_
  6
Continuous
 62
     7
100
AcDbPolyline
 90
       25
 70
     0
 43
0.0
 10
427.4192817573734
 20
249.29556389844
 10
427.3993356590464
 20
249.304492674227
 10
427.3793633346744
 20
249.3134202579221
 10
427.3593719368174
 20
249.3223478416161
 10
427.3393566971014
 20
249.3312754253101
 10
427.3193223838993
 20
249.3402018169121
 10
427.2992689972112
 20
249.3491294006071
 10
427.2791941528514
 20
249.3580557922081
 10
427.2591026191902
 20
249.366983375903
 10
427.2389943962284
 20
249.375909767504
 10
427.2188694839664
 20
249.384837351198
 10
427.1987278824043
 20
249.393766126986
 10
427.1785695915413
 20
249.4026949027731
 10
427.1584017639344
 20
249.4116224864681
 10
427.1382220153993
 20
249.4205512622551
 10
427.1180327301214
 20
249.42947884595
 10
427.0978362922853
 20
249.438406429644
 10
427.0776303177064
 20
249.447332821245
 10
427.0574171905704
 20
249.45626040494
 10
427.0371969108763
 20
249.465186796542
 10
427.0169742469974
 20
249.474113188143
 10
426.9967444305604
 20
249.4830407718381
 10
426.9765098457523
 20
249.4919683555321
 10
426.9562752609444
 20
249.5008971313191
 10
426.9360359077642
 20
249.5098247150141
  0
LWPOLYLINE
  5
55F
330
1F
100
AcDbEntity
  8
Sichtbare_Kanten_TC_020513_DIN_
  6
Continuous
 62
     7
100
AcDbPolyline
 90
       25
 70
     0
 43
0.0
 10
250.3423561946883
 20
249.0745689490991
 10
250.3566231624624
 20
249.075077972765
 10
250.3703703777334
 20
249.0765990833
 10
250.3835978405012
 20
249.079121551867
 10
250.3963007823963
 20
249.0826334575371
 10
250.4084887401593
 20
249.08712645566
 10
250.4201569454214
 20
249.0925898174
 10
250.4313006298083
 20
249.0990104297351
 10
250.4419245616933
 20
249.1063811401091
 10
250.4520287410753
 20
249.1146888354971
 10
250.4616036312124
 20
249.1239120582301
 10
250.4706158535023
 20
249.133995972033
 10
250.4790749446883
 20
249.1449131587701
 10
250.4869999782583
 20
249.1566397765831
 10
250.4944052593243
 20
249.169155559893
 10
250.5013003246323
 20
249.1824354747491
 10
250.5076661006943
 20
249.1963638881401
 10
250.5133404628773
 20
249.210400781985
 10
250.5183472530383
 20
249.2243136981681
 10
250.5227246181504
 20
249.2379309753131
 10
250.5265202419292
 20
249.251080952044
 10
250.5297818080913
 20
249.263591966982
 10
250.5325522319813
 20
249.275291166659
 10
250.5348839656843
 20
249.2860056976041
 10
250.5368151561753
 20
249.29556389844
  0
LWPOLYLINE
  5
560
330
1F
100
AcDbEntity
  8
Sichtbare_Kanten_TC_020513_DIN_
  6
Continuous
 62
     7
100
AcDbPolyline
 90
       25
 70
     0
 43
0.0
 10
251.9158091442123
 20
249.29556389844
 10
251.9121661083233
 20
249.2865337947561
 10
251.9078602687854
 20
249.276520214434
 10
251.9028010265364
 20
249.2656566718771
 10
251.8969120876333
 20
249.254081449862
 10
251.8901076213853
 20
249.2419256786061
 10
251.8823113338483
 20
249.22932883298
 10
251.8734421627063
 20
249.2164220432
 10
251.8634190456403
 20
249.2033435920431
 10
251.8521609203353
 20
249.190228186007
 10
251.8395819561023
 20
249.1772093394951
 10
251.8256058589954
 20
249.1644241431911
 10
251.8101467983263
 20
249.152006111498
 10
251.7931332485213
 20
249.140092335101
 10
251.7744746105213
 20
249.1288175204951
 10
251.7544093029043
 20
249.118451080675
 10
251.7332758800523
 20
249.1091944793421
 10
251.7110791103384
 20
249.1010441402151
 10
251.6878380672473
 20
249.093992910738
 10
251.6635527507793
 20
249.0880395988181
 10
251.6382422344224
 20
249.0831782439901
 10
251.6119065181744
 20
249.079405269976
 10
251.5845646755233
 20
249.076715908404
 10
251.5562214748403
 20
249.0751053909021
 10
251.5268864528673
 20
249.0745689490991
  0
LWPOLYLINE
  5
561
330
1F
100
AcDbEntity
  8
Sichtbare_Kanten_TC_020513_DIN_
  6
Continuous
 62
     7
100
AcDbPolyline
 90
       25
 70
     0
 43
0.0
 10
250.5368151561753
 20
249.29556389844
 10
250.5385270015732
 20
249.304492674227
 10
250.5401673213972
 20
249.3134202579221
 10
250.5417313472764
 20
249.3223478416161
 10
250.5432238475813
 20
249.3312754253101
 10
250.5446448223133
 20
249.3402018169121
 10
250.5459942714703
 20
249.3491294006071
 10
250.5472721950542
 20
249.3580557922081
 10
250.5484738246934
 20
249.366983375903
 10
250.5496039287583
 20
249.375909767504
 10
250.5506625072493
 20
249.384837351198
 10
250.5516495601673
 20
249.393766126986
 10
250.5525650875103
 20
249.4026949027731
 10
250.5534043209093
 20
249.4116224864681
 10
250.5541720287343
 20
249.4205512622551
 10
250.5548634426133
 20
249.42947884595
 10
250.5554880992903
 20
249.438406429644
 10
250.5560316936513
 20
249.447332821245
 10
250.5565085308093
 20
249.45626040494
 10
250.5569090740223
 20
249.465186796542
 10
250.5572380916614
 20
249.474113188143
 10
250.5574955837263
 20
249.4830407718381
 10
250.5576767818463
 20
249.4919683555321
 10
250.5577864543933
 20
249.5008971313191
 10
250.5578246013653
 20
249.5098247150141
  0
LWPOLYLINE
  5
562
330
1F
100
AcDbEntity
  8
Sichtbare_Kanten_TC_020513_DIN_
  6
Continuous
 62
     7
100
AcDbPolyline
 90
       25
 70
     0
 43
0.0
 10
251.9578232662213
 20
249.5098247150141
 10
251.9577517406483
 20
249.5008971313191
 10
251.9575323955553
 20
249.4919683555321
 10
251.9571652309434
 20
249.4830407718381
 10
251.9566550151843
 20
249.474113188143
 10
251.9559969799063
 20
249.465186796542
 10
251.9551911251083
 20
249.45626040494
 10
251.9542422191634
 20
249.447332821245
 10
251.9531454936993
 20
249.438406429644
 10
251.9519057170884
 20
249.42947884595
 10
251.9505181209582
 20
249.4205512622551
 10
251.9489827053084
 20
249.4116224864681
 10
251.9472994701404
 20
249.4026949027731
 10
251.9454731838243
 20
249.393766126986
 10
251.9435038463613
 20
249.384837351198
 10
251.9413866893783
 20
249.375909767504
 10
251.9391264812483
 20
249.366983375903
 10
251.9367184535994
 20
249.3580557922081
 10
251.9341626064313
 20
249.3491294006071
 10
251.9314684764873
 20
249.3402018169121
 10
251.9286265270254
 20
249.3312754253101
 10
251.9256367580433
 20
249.3223478416161
 10
251.9225039379134
 20
249.3134202579221
 10
251.9192280666373
 20
249.304492674227
 10
251.9158091442123
 20
249.29556389844
  0
LWPOLYLINE
  5
563
330
1F
100
AcDbEntity
  8
Sichtbare_Kanten_TC_020513_DIN_
  6
Continuous
 62
     7
100
AcDbPolyline
 90
       25
 70
     0
 43
0.0
 10
239.0813078777334
 20
237.5143917421061
 10
239.0714802639023
 20
237.4634506324481
 10
239.0616550342573
 20
237.4125476697641
 10
239.0518345729844
 20
237.361694774981
 10
239.0420164958973
 20
237.310905061121
 10
239.0321984188093
 20
237.2601910451611
 10
239.0223827259083
 20
237.209564648028
 10
239.0125670330064
 20
237.1590389827451
 10
239.0027489559193
 20
237.108627162333
 10
238.9929308788313
 20
237.058340511675
 10
238.9831104175584
 20
237.008192143793
 10
238.9732851879134
 20
236.9581951717091
 10
238.9634575740834
 20
236.9083609203061
 10
238.9536299602523
 20
236.8587275365551
 10
238.9438047306073
 20
236.8093319753361
 10
238.9339842693343
 20
236.7601855615331
 10
238.9241661922473
 20
236.711300216074
 10
238.9143481151593
 20
236.662688157912
 10
238.9045324222583
 20
236.6143616059971
 10
238.8947167293563
 20
236.5663318852141
 10
238.8848986522693
 20
236.518611512537
 10
238.8750805751813
 20
236.4712124088961
 10
238.8652601139083
 20
236.4241461971951
 10
238.8554348842633
 20
236.377425096388
 10
238.8456072704333
 20
236.33106072938
  0
LWPOLYLINE
  5
564
330
1F
100
AcDbEntity
  8
Sichtbare_Kanten_TC_020513_DIN_
  6
Continuous
 62
     7
100
AcDbPolyline
 90
       25
 70
     0
 43
0.0
 10
238.8456072704333
 20
236.9227262357431
 10
238.8554348842633
 20
236.945908270235
 10
238.8652601139083
 20
236.969269118662
 10
238.8750805751813
 20
236.992802224512
 10
238.8848986522693
 20
237.0165016273221
 10
238.8947167293563
 20
237.0403619626721
 10
238.9045324222583
 20
237.0643766740521
 10
238.9143481151593
 20
237.088539800997
 10
238.9241661922473
 20
237.1128459790901
 10
238.9339842693343
 20
237.1372886518201
 10
238.9438047306073
 20
237.161861858721
 10
238.9536299602523
 20
237.1865596393301
 10
238.9634575740834
 20
237.2113766292291
 10
238.9732851879134
 20
237.236293754931
 10
238.9831104175584
 20
237.26129194295
 10
238.9929308788313
 20
237.2863664249141
 10
239.0027489559193
 20
237.311509452219
 10
239.0125670330064
 20
237.3367156604481
 10
239.0223827259083
 20
237.3619784930901
 10
239.0321984188093
 20
237.387291393633
 10
239.0420164958973
 20
237.4126484016141
 10
239.0518345729844
 20
237.4380435565671
 10
239.0616550342573
 20
237.463469705935
 10
239.0714802639023
 20
237.4889214853
 10
239.0813078777334
 20
237.5143917421061
  0
LWPOLYLINE
  5
565
330
1F
100
AcDbEntity
  8
Sichtbare_Kanten_TC_020513_DIN_
  6
Continuous
 62
     7
100
AcDbPolyline
 90
       25
 70
     0
 43
0.0
 10
237.5800385372173
 20
250.291205845232
 10
237.6076688663503
 20
250.287543735857
 10
237.6352467433943
 20
250.276595554705
 10
237.6627912418384
 20
250.2584137538631
 10
237.6903214351673
 20
250.2330555537891
 10
237.7178516284963
 20
250.2005757907581
 10
237.7454032794973
 20
250.16102810895
 10
237.7729906932843
 20
250.1144709209161
 10
237.8006329433463
 20
250.060963831301
 10
237.8282489673633
 20
250.0007845977501
 10
237.8558196918503
 20
249.9341680625631
 10
237.8833594219224
 20
249.86127038991
 10
237.9108872310653
 20
249.782248936053
 10
237.9384198085803
 20
249.697258673067
 10
237.9659786121383
 20
249.6064593414021
 10
237.9935779468553
 20
249.510005913134
 10
238.0212273494733
 20
249.4080986598691
 10
238.0488624469773
 20
249.3012263396931
 10
238.0764832393663
 20
249.189666710253
 10
238.1041135684983
 20
249.073640308733
 10
238.1317629711163
 20
248.9533772090631
 10
238.1594028369923
 20
248.829335174914
 10
238.1870283977523
 20
248.701864681597
 10
238.2146539585133
 20
248.5712196449001
 10
238.2422985927603
 20
248.437652788516
  0
LWPOLYLINE
  5
566
330
1F
100
AcDbEntity
  8
Sichtbare_Kanten_TC_020513_DIN_
  6
Continuous
 62
     7
100
AcDbPolyline
 90
       25
 70
     0
 43
0.0
 10
238.2422985927603
 20
248.437652788516
 10
238.2592048542043
 20
248.3609809497551
 10
238.2773079769153
 20
248.2887365440091
 10
238.2962932483694
 20
248.2209398368551
 10
238.3158388034833
 20
248.157607517596
 10
238.3356323139203
 20
248.098761043902
 10
238.3553542987843
 20
248.0444206813531
 10
238.3746876613633
 20
247.9946043113431
 10
238.3933343784353
 20
247.9492964366631
 10
238.4118571178453
 20
247.9067160705281
 10
238.4305896656053
 20
247.8658713916501
 10
238.4494199649823
 20
247.8267910102561
 10
238.4682454959883
 20
247.789499960299
 10
238.4869518177053
 20
247.7540256599141
 10
238.5054292575853
 20
247.7203931430531
 10
238.5235729114553
 20
247.6886286357601
 10
238.5412707225813
 20
247.658760748263
 10
238.5584154026053
 20
247.6308133224211
 10
238.5748948947924
 20
247.604814968462
 10
238.5906042949694
 20
247.5807907203391
 10
238.6054291622173
 20
247.558766804095
 10
238.6192622081773
 20
247.538769445773
 10
238.6319961444873
 20
247.520827255602
 10
238.6435212986013
 20
247.5049628833491
 10
238.6537279979723
 20
247.491206131335
  0
LWPOLYLINE
  5
567
330
1F
100
AcDbEntity
  8
Sichtbare_Kanten_TC_020513_DIN_
  6
Continuous
 62
     7
100
AcDbPolyline
 90
       25
 70
     0
 43
0.0
 10
238.2422985927603
 20
247.9644300559721
 10
238.2146420375843
 20
248.031237326021
 10
238.1870427028673
 20
248.0965008357721
 10
238.1594767467514
 20
248.1601001838401
 10
238.1319346324933
 20
248.2219161609371
 10
238.1043901340503
 20
248.2818295577721
 10
238.0768313304913
 20
248.3397211650571
 10
238.0492391483323
 20
248.395471773501
 10
238.0215921298993
 20
248.448960981722
 10
237.9939284221663
 20
248.4999789813711
 10
237.9663171665213
 20
248.548256359454
 10
237.9387488262194
 20
248.593708477373
 10
237.9112019435903
 20
248.6362566570001
 10
237.8836598293323
 20
248.6758210281091
 10
237.8561057941453
 20
248.7123241046621
 10
237.8285183803573
 20
248.7456848243431
 10
237.8008832828543
 20
248.775825701113
 10
237.7732124225634
 20
248.802638254519
 10
237.7455892459883
 20
248.8259722808551
 10
237.7180042163863
 20
248.845790825243
 10
237.6904406444563
 20
248.8620676616391
 10
237.6628794567123
 20
248.8747753719051
 10
237.6353039638533
 20
248.8838853458121
 10
237.6076974765794
 20
248.889371357317
 10
237.5800385372173
 20
248.8912059882841
  0
LWPOLYLINE
  5
568
330
1F
100
AcDbEntity
  8
Sichtbare_Kanten_TC_020513_DIN_
  6
Continuous
 62
     7
100
AcDbPolyline
 90
       25
 70
     0
 43
0.0
 10
238.6537279979723
 20
247.491206131335
 10
238.6398210422533
 20
247.500592670794
 10
238.6240615741743
 20
247.5115289310171
 10
238.6066427127853
 20
247.524004183169
 10
238.5877623455064
 20
247.5380100825981
 10
238.5676112072003
 20
247.5535359004691
 10
238.5463895694753
 20
247.570572100039
 10
238.5242857830064
 20
247.589107952471
 10
238.5015001194013
 20
247.60913272893
 10
238.4782256977093
 20
247.6306392768581
 10
238.4546580211653
 20
247.653615675326
 10
238.4309925930044
 20
247.678052387591
 10
238.4074225322744
 20
247.7039398769101
 10
238.3842077152264
 20
247.731186352129
 10
238.3626642124193
 20
247.7582289794641
 10
238.3431663410203
 20
247.784397802706
 10
238.3256068126693
 20
247.8095974544241
 10
238.3098831073774
 20
247.833726606722
 10
238.2958879367843
 20
247.8566875079831
 10
238.2835140125293
 20
247.8783835986811
 10
238.2726588146223
 20
247.8987147430141
 10
238.2632150547044
 20
247.9175831893641
 10
238.2550778285994
 20
247.9348911861141
 10
238.2481422321333
 20
247.9505385974601
 10
238.2422985927603
 20
247.9644300559721
  0
LWPOLYLINE
  5
569
330
1F
100
AcDbEntity
  8
Sichtbare_Kanten_TC_020513_DIN_
  6
Continuous
 62
     7
100
AcDbPolyline
 90
       25
 70
     0
 43
0.0
 10
166.6733517543813
 20
247.9644300559721
 10
166.6675081150073
 20
247.9505385974601
 10
166.6605725185412
 20
247.9348911861141
 10
166.6524352924363
 20
247.9175831893641
 10
166.6429915325183
 20
247.8987147430141
 10
166.6321363346114
 20
247.8783835986811
 10
166.6197624103563
 20
247.8566875079831
 10
166.6057672397633
 20
247.833726606722
 10
166.5900435344713
 20
247.8095974544241
 10
166.5724840061204
 20
247.784397802706
 10
166.5529861347213
 20
247.7582289794641
 10
166.5314426319143
 20
247.731186352129
 10
166.5082278148663
 20
247.7039398769101
 10
166.4846577541363
 20
247.678052387591
 10
166.4609923259753
 20
247.653615675326
 10
166.4374246494314
 20
247.6306392768581
 10
166.4141502277394
 20
247.60913272893
 10
166.3913645641343
 20
247.589107952471
 10
166.3692607776653
 20
247.570572100039
 10
166.3480391399403
 20
247.5535359004691
 10
166.3278880016343
 20
247.5380100825981
 10
166.3090076343553
 20
247.524004183169
 10
166.2915887729663
 20
247.5115289310171
 10
166.2758293048873
 20
247.500592670794
 10
166.2619223491683
 20
247.491206131335
  0
LWPOLYLINE
  5
56A
330
1F
100
AcDbEntity
  8
Sichtbare_Kanten_TC_020513_DIN_
  6
Continuous
 62
     7
100
AcDbPolyline
 90
       25
 70
     0
 43
0.0
 10
166.2619223491683
 20
247.491206131335
 10
166.2721290485403
 20
247.5049628833491
 10
166.2836542026533
 20
247.520827255602
 10
166.2963881389634
 20
247.538769445773
 10
166.3102211849233
 20
247.558766804095
 10
166.3250460521713
 20
247.5807907203391
 10
166.3407554523483
 20
247.604814968462
 10
166.3572349445363
 20
247.6308133224211
 10
166.3743796245593
 20
247.658760748263
 10
166.3920774356863
 20
247.6886286357601
 10
166.4102210895553
 20
247.7203931430531
 10
166.4286985294363
 20
247.7540256599141
 10
166.4474048511523
 20
247.789499960299
 10
166.4662303821583
 20
247.8267910102561
 10
166.4850606815353
 20
247.8658713916501
 10
166.5037932292953
 20
247.9067160705281
 10
166.5223159687063
 20
247.9492964366631
 10
166.5409626857773
 20
247.9946043113431
 10
166.5602960483564
 20
248.0444206813531
 10
166.5800180332203
 20
248.098761043902
 10
166.5998115436573
 20
248.157607517596
 10
166.6193570987723
 20
248.2209398368551
 10
166.6383423702254
 20
248.2887365440091
 10
166.6564454929373
 20
248.3609809497551
 10
166.6733517543813
 20
248.437652788516
  0
LWPOLYLINE
  5
56B
330
1F
100
AcDbEntity
  8
Sichtbare_Kanten_TC_020513_DIN_
  6
Continuous
 62
     7
100
AcDbPolyline
 90
       25
 70
     0
 43
0.0
 10
167.3356118099233
 20
248.8912059882841
 10
167.3079552547473
 20
248.889371357317
 10
167.2803535358443
 20
248.883887729998
 10
167.2527899639143
 20
248.874782524462
 10
167.2252454654713
 20
248.8620867351251
 10
167.1977033512134
 20
248.845828972216
 10
167.1701445476554
 20
248.826036653872
 10
167.1425523654954
 20
248.802740774508
 10
167.1149053470623
 20
248.775969944353
 10
167.0872392551433
 20
248.74581118619
 10
167.0596303836843
 20
248.712432585116
 10
167.0320620433823
 20
248.6759211639121
 10
167.0045151607533
 20
248.6363567928031
 10
166.9769730464954
 20
248.593822918292
 10
166.9494190113084
 20
248.5484017947871
 10
166.9218315975203
 20
248.5001744846061
 10
166.8941965000173
 20
248.4492244342521
 10
166.8665256397263
 20
248.3956946948721
 10
166.8389024631513
 20
248.339891634341
 10
166.8113174335493
 20
248.2819523433401
 10
166.7837538616193
 20
248.2219972232541
 10
166.7561926738753
 20
248.1601478675561
 10
166.7286171810164
 20
248.0965222934441
 10
166.7010106937423
 20
248.0312432864861
 10
166.6733517543813
 20
247.9644300559721
  0
LWPOLYLINE
  5
56C
330
1F
100
AcDbEntity
  8
Sichtbare_Kanten_TC_020513_DIN_
  6
Continuous
 62
     7
100
AcDbPolyline
 90
       25
 70
     0
 43
0.0
 10
166.6733517543813
 20
248.437652788516
 10
166.7009820835133
 20
248.5711433509541
 10
166.7285599605573
 20
248.701567850466
 10
166.7561044590013
 20
248.8286866763791
 10
166.7836346523303
 20
248.9522602180201
 10
166.8111648456593
 20
249.0720476726251
 10
166.8387164966604
 20
249.1878118137081
 10
166.8663039104483
 20
249.29931064641
 10
166.8939461605092
 20
249.406291447039
 10
166.9215621845264
 20
249.508172474261
 10
166.9491305248273
 20
249.60462232625
 10
166.9766702548993
 20
249.695475302096
 10
167.0041980640423
 20
249.780565700884
 10
167.0317330257433
 20
249.8597278217031
 10
167.0592918293013
 20
249.932798347826
 10
167.0868911640183
 20
249.999611578341
 10
167.1145405666363
 20
250.0599779704771
 10
167.1421732799544
 20
250.1135911563591
 10
167.1697964565293
 20
250.160324774142
 10
167.1974267856614
 20
250.200088224764
 10
167.2250761882804
 20
250.2327909091671
 10
167.2527160541553
 20
250.258301697131
 10
167.2803392307303
 20
250.2765621761041
 10
167.3079671756763
 20
250.287540159579
 10
167.3356118099233
 20
250.291205845232
  0
LWPOLYLINE
  5
56D
330
1F
100
AcDbEntity
  8
Sichtbare_Kanten_TC_020513_DIN_
  6
Continuous
 62
     7
100
AcDbPolyline
 90
       25
 70
     0
 43
0.0
 10
154.3788351909653
 20
249.29556389844
 10
154.3806614772813
 20
249.286480150576
 10
154.3827977077503
 20
249.2765011409481
 10
154.3852867977163
 20
249.2657460788441
 10
154.3881668941514
 20
249.2543389419271
 10
154.3914761440293
 20
249.2424001315791
 10
154.3952622310653
 20
249.230051241274
 10
154.3995633022323
 20
249.2174150565821
 10
154.4044175045033
 20
249.204611978884
 10
154.4098677532213
 20
249.191764793749
 10
154.4159521953603
 20
249.178995094653
 10
154.4227137462633
 20
249.1664244750691
 10
154.4301953212753
 20
249.1541745284751
 10
154.4384350673694
 20
249.1423668483451
 10
154.4474711315173
 20
249.1311242202481
 10
154.4572796718613
 20
249.1206397632321
 10
154.4677081005114
 20
249.111162624712
 10
154.4787611858384
 20
249.1027237991051
 10
154.4904436962144
 20
249.0953435519891
 10
154.5027747051253
 20
249.0890433410361
 10
154.5157303707143
 20
249.0838529685691
 10
154.5292630092633
 20
249.07980223691
 10
154.5433773891463
 20
249.07689949071
 10
154.5580544368763
 20
249.0751530746181
 10
154.5732941524524
 20
249.0745689490991
  0
LWPOLYLINE
  5
56E
330
1F
100
AcDbEntity
  8
Sichtbare_Kanten_TC_020513_DIN_
  6
Continuous
 62
     7
100
AcDbPolyline
 90
       25
 70
     0
 43
0.0
 10
153.3887638942733
 20
249.0745689490991
 10
153.3593478099843
 20
249.0751077750881
 10
153.3309235469833
 20
249.0767278293331
 10
153.3035101787583
 20
249.0794338802061
 10
153.2771077053084
 20
249.0832306960781
 10
153.2517352001204
 20
249.0881206611351
 10
153.2273974315664
 20
249.094109735842
 10
153.2041039363874
 20
249.1012014964771
 10
153.1818690197003
 20
249.109400711413
 10
153.1606974498764
 20
249.1187109569271
 10
153.1406130687733
 20
249.129132233019
 10
153.1220259563463
 20
249.1404142001821
 10
153.1050743953723
 20
249.15232797658
 10
153.0896820919053
 20
249.1647376636221
 10
153.0757584468853
 20
249.1775097469051
 10
153.0632319347393
 20
249.19050951993
 10
153.0520167247793
 20
249.2036022762021
 10
153.0420317546863
 20
249.2166545013151
 10
153.0332007305163
 20
249.229530296679
 10
153.0254378215803
 20
249.24209614789
 10
153.0186619655623
 20
249.2542161563591
 10
153.0127968685164
 20
249.2657579997731
 10
153.0077614681263
 20
249.2765857795431
 10
153.0034699337024
 20
249.2865659812651
 10
152.9998412029283
 20
249.29556389844
  0
LWPOLYLINE
  5
56F
330
1F
100
AcDbEntity
  8
Sichtbare_Kanten_TC_020513_DIN_
  6
Continuous
 62
     7
100
AcDbPolyline
 90
       25
 70
     0
 43
0.0
 10
154.3578257457754
 20
249.5098247150141
 10
154.3578638927473
 20
249.5008971313191
 10
154.3579735652943
 20
249.4919683555321
 10
154.3581547634143
 20
249.4830407718381
 10
154.3584122554793
 20
249.474113188143
 10
154.3587412731183
 20
249.465186796542
 10
154.3591418163313
 20
249.45626040494
 10
154.3596186534893
 20
249.447332821245
 10
154.3601622478503
 20
249.438406429644
 10
154.3607869045273
 20
249.42947884595
 10
154.3614783184073
 20
249.4205512622551
 10
154.3622460262313
 20
249.4116224864681
 10
154.3630852596303
 20
249.4026949027731
 10
154.3640007869733
 20
249.393766126986
 10
154.3649878398913
 20
249.384837351198
 10
154.3660464183823
 20
249.375909767504
 10
154.3671765224473
 20
249.366983375903
 10
154.3683781520863
 20
249.3580557922081
 10
154.3696560756704
 20
249.3491294006071
 10
154.3710055248273
 20
249.3402018169121
 10
154.3724264995593
 20
249.3312754253101
 10
154.3739189998643
 20
249.3223478416161
 10
154.3754830257433
 20
249.3134202579221
 10
154.3771233455674
 20
249.304492674227
 10
154.3788351909653
 20
249.29556389844
  0
LWPOLYLINE
  5
570
330
1F
100
AcDbEntity
  8
Sichtbare_Kanten_TC_020513_DIN_
  6
Continuous
 62
     7
100
AcDbPolyline
 90
       25
 70
     0
 43
0.0
 10
152.9998412029283
 20
249.29556389844
 10
152.9964222805044
 20
249.304492674227
 10
152.9931464092273
 20
249.3134202579221
 10
152.9900135890973
 20
249.3223478416161
 10
152.9870238201153
 20
249.3312754253101
 10
152.9841818706533
 20
249.3402018169121
 10
152.9814877407093
 20
249.3491294006071
 10
152.9789318935412
 20
249.3580557922081
 10
152.9765238658923
 20
249.366983375903
 10
152.9742636577623
 20
249.375909767504
 10
152.9721465007804
 20
249.384837351198
 10
152.9701771633163
 20
249.393766126986
 10
152.9683508770003
 20
249.4026949027731
 10
152.9666676418323
 20
249.4116224864681
 10
152.9651322261823
 20
249.4205512622551
 10
152.9637446300523
 20
249.42947884595
 10
152.9625048534414
 20
249.438406429644
 10
152.9614081279773
 20
249.447332821245
 10
152.9604592220323
 20
249.45626040494
 10
152.9596533672353
 20
249.465186796542
 10
152.9589953319563
 20
249.474113188143
 10
152.9584851161973
 20
249.4830407718381
 10
152.9581179515853
 20
249.4919683555321
 10
152.9578986064923
 20
249.5008971313191
 10
152.9578270809193
 20
249.5098247150141
  0
LWPOLYLINE
  5
571
330
1F
100
AcDbEntity
  8
Sichtbare_Kanten_TC_020513_DIN_
  6
Continuous
 62
     7
100
AcDbPolyline
 90
       25
 70
     0
 43
0.0
 10
165.8343424694073
 20
237.5143917421061
 10
165.8441700832383
 20
237.4889214853
 10
165.8539953128833
 20
237.463469705935
 10
165.8638157741563
 20
237.4380435565671
 10
165.8736338512433
 20
237.4126484016141
 10
165.8834519283313
 20
237.387291393633
 10
165.8932676212323
 20
237.3619784930901
 10
165.9030833141343
 20
237.3367156604481
 10
165.9129013912213
 20
237.311509452219
 10
165.9227194683093
 20
237.2863664249141
 10
165.9325399295823
 20
237.26129194295
 10
165.9423651592273
 20
237.236293754931
 10
165.9521927730573
 20
237.2113766292291
 10
165.9620203868883
 20
237.1865596393301
 10
165.9718456165333
 20
237.161861858721
 10
165.9816660778064
 20
237.1372886518201
 10
165.9914841548933
 20
237.1128459790901
 10
166.0013022319813
 20
237.088539800997
 10
166.0111179248823
 20
237.0643766740521
 10
166.0209336177843
 20
237.0403619626721
 10
166.0307516948714
 20
237.0165016273221
 10
166.0405697719593
 20
236.992802224512
 10
166.0503902332323
 20
236.969269118662
 10
166.0602154628773
 20
236.945908270235
 10
166.0700430767073
 20
236.9227262357431
  0
LWPOLYLINE
  5
572
330
1F
100
AcDbEntity
  8
Sichtbare_Kanten_TC_020513_DIN_
  6
Continuous
 62
     7
100
AcDbPolyline
 90
       25
 70
     0
 43
0.0
 10
166.0700430767073
 20
236.33106072938
 10
166.0602154628773
 20
236.377425096388
 10
166.0503902332323
 20
236.4241461971951
 10
166.0405697719593
 20
236.4712124088961
 10
166.0307516948714
 20
236.518611512537
 10
166.0209336177843
 20
236.5663318852141
 10
166.0111179248823
 20
236.6143616059971
 10
166.0013022319813
 20
236.662688157912
 10
165.9914841548933
 20
236.711300216074
 10
165.9816660778064
 20
236.7601855615331
 10
165.9718456165333
 20
236.8093319753361
 10
165.9620203868883
 20
236.8587275365551
 10
165.9521927730573
 20
236.9083609203061
 10
165.9423651592273
 20
236.9581951717091
 10
165.9325399295823
 20
237.008192143793
 10
165.9227194683093
 20
237.058340511675
 10
165.9129013912213
 20
237.108627162333
 10
165.9030833141343
 20
237.1590389827451
 10
165.8932676212323
 20
237.209564648028
 10
165.8834519283313
 20
237.2601910451611
 10
165.8736338512433
 20
237.310905061121
 10
165.8638157741563
 20
237.361694774981
 10
165.8539953128833
 20
237.4125476697641
 10
165.8441700832383
 20
237.4634506324481
 10
165.8343424694073
 20
237.5143917421061
  0
LWPOLYLINE
  5
573
330
1F
100
AcDbEntity
  8
Sichtbare_Kanten_TC_020513_DIN_
  6
Continuous
 62
     7
100
AcDbPolyline
 90
       25
 70
     0
 43
0.0
 10
212.1681555406583
 20
219.4969465354641
 10
212.1707638399143
 20
219.496941767092
 10
212.1736475126284
 20
219.496923885699
 10
212.1767755643863
 20
219.496884546633
 10
212.1801140205404
 20
219.4968189815241
 10
212.1836312906283
 20
219.4967176536281
 10
212.1872951881423
 20
219.4965746024801
 10
212.1910717384353
 20
219.496383867617
 10
212.1949299470923
 20
219.4961371043881
 10
212.1988370315573
 20
219.4958271602351
 10
212.2027596132293
 20
219.4954480746941
 10
212.2066661016484
 20
219.4949926952081
 10
212.2105237142583
 20
219.4944538692191
 10
212.2143002645513
 20
219.493823252077
 10
212.2179623739263
 20
219.4930960754111
 10
212.2214784519214
 20
219.49226399457
 10
212.2248306171433
 20
219.491315088625
 10
212.2280540363333
 20
219.4902112106041
 10
212.2310885087983
 20
219.4889344791131
 10
212.2338613168733
 20
219.4874670127591
 10
212.2362991468443
 20
219.485796890612
 10
212.2383304731383
 20
219.4839026550011
 10
212.2398807899493
 20
219.4817628482541
 10
212.2408559219373
 20
219.4793870071131
 10
212.2411879198093
 20
219.476812086459
  0
LWPOLYLINE
  5
574
330
1F
100
AcDbEntity
  8
Sichtbare_Kanten_TC_020513_DIN_
  6
Continuous
 62
     7
100
AcDbPolyline
 90
       25
 70
     0
 43
0.0
 10
192.6744624273314
 20
219.476812086459
 10
192.6746030942933
 20
219.4785227397641
 10
192.6751675502793
 20
219.480515919085
 10
192.6763644115463
 20
219.4827034095481
 10
192.6782306329743
 20
219.48483248746
 10
192.6805802480714
 20
219.486696920748
 10
192.6833119289413
 20
219.4883157829001
 10
192.6863565341963
 20
219.489722452517
 10
192.6896794931433
 20
219.4909503081991
 10
192.6932182209033
 20
219.4920112708761
 10
192.6969101326004
 20
219.492922029848
 10
192.7006938354504
 20
219.4936956981381
 10
192.7045293943423
 20
219.4943501571371
 10
192.7084489957823
 20
219.4949092487051
 10
192.7124228374493
 20
219.495382509585
 10
192.7164175407423
 20
219.495777092333
 10
192.7203967468283
 20
219.4960989574151
 10
192.7243264810574
 20
219.4963564494801
 10
192.7281709806463
 20
219.496555528994
 10
192.7318950788514
 20
219.496704540606
 10
192.7354648010273
 20
219.4968106368741
 10
192.7388449804323
 20
219.4968809703541
 10
192.7419998542804
 20
219.496922693606
 10
192.7448948518774
 20
219.496941767092
 10
192.7474948064823
 20
219.4969465354641
  0
SOLID
  5
575
330
1F
100
AcDbEntity
  8
Symbole_TC_020513_DIN_
 62
     7
100
AcDbTrace
 10
432.1142590833786
 20
169.6297155423052
 30
0.0
 11
430.2655161568485
 21
167.754855110165
 31
0.0
 12
424.0693982010063
 22
175.7135836700161
 32
0.0
 13
424.0693982010063
 23
175.7135836700161
 33
0.0
  0
LEADER
  5
576
330
1F
100
AcDbEntity
  8
Symbole_TC_020513_DIN_
  6
Continuous
 62
     7
100
AcDbLeader
  3
Standard
 71
     0
 76
     3
 10
424.0693982010063
 20
175.7135836700161
 30
0.0
 10
449.8823552879904
 20
150.260210709923
 30
0.0
 10
453.2823552879903
 20
150.260210709923
 30
0.0
  0
DIMENSION
  5
582
330
1F
100
AcDbEntity
  8
Bemaßungen_TC_020513_DIN_
100
AcDbDimension
  2
*D3
 10
143.9578251735707
 20
121.7657519199269
 30
0.0
 11
203.6643463195463
 21
133.3013664801407
 31
0.0
 70
    32
  1
117
 71
     5
 42
-1.0
 53
0.00013888888889
  3
ME10_DIM_10
100
AcDbAlignedDimension
 13
260.9578251735703
 23
187.408583670016
 33
0.0
 14
143.9578251735703
 24
179.7135836700161
 34
0.0
100
AcDbRotatedDimension
  0
DIMENSION
  5
58D
330
1F
100
AcDbEntity
  8
Bemaßungen_TC_020513_DIN_
100
AcDbDimension
  2
*D4
 10
149.9578251735702
 20
144.9072331537139
 30
0.0
 11
203.6380843823014
 21
156.6318718972405
 31
0.0
 70
    32
  1
105
 71
     5
 42
-1.0
 53
0.00013888888889
  3
ME10_DIM_11
100
AcDbAlignedDimension
 13
254.9578251735703
 23
177.7135836700161
 33
0.0
 14
149.9578251735703
 24
177.7135836700161
 34
0.0
100
AcDbRotatedDimension
  0
DIMENSION
  5
598
330
1F
100
AcDbEntity
  8
Bemaßungen_TC_020513_DIN_
100
AcDbDimension
  2
*D5
 10
373.0693982010044
 20
121.6101010829512
 30
0.0
 11
402.2957556362022
 21
133.2364386990997
 31
0.0
 70
    32
  1
57
 71
     5
 42
-1.0
 53
0.00013888888889
  3
ME10_DIM_12
100
AcDbAlignedDimension
 13
430.0693982010045
 23
177.7135836700161
 33
0.0
 14
373.0693982010045
 24
177.7135836700161
 34
0.0
100
AcDbRotatedDimension
  0
DIMENSION
  5
5A3
330
1F
100
AcDbEntity
  8
Bemaßungen_TC_020513_DIN_
100
AcDbDimension
  2
*D6
 10
424.069398201006
 20
145.5926881476279
 30
0.0
 11
402.1286342173772
 21
157.2538516344231
 31
0.0
 70
    32
  1
45
 71
     5
 42
-1.0
 53
0.00013888888889
  3
ME10_DIM_13
100
AcDbAlignedDimension
 13
379.0693982010063
 23
177.7135836700161
 33
0.0
 14
424.0693982010063
 24
177.7135836700161
 34
0.0
100
AcDbRotatedDimension
  0
DIMENSION
  5
5B0
330
1F
100
AcDbEntity
  8
Bemaßungen_TC_020513_DIN_
100
AcDbDimension
  2
*D7
 10
462.1554678527468
 20
179.7135836700161
 30
0.0
 11
450.6833285492641
 21
194.1835836700161
 31
0.0
 70
    32
  1
4
 71
     5
 42
-1.0
 53
90.0
  3
ME10_DIM_14
100
AcDbAlignedDimension
 13
430.0693982010045
 23
175.7135836700161
 33
0.0
 14
430.0693982010045
 24
179.7135836700161
 34
0.0
 50
90.0
100
AcDbRotatedDimension
  0
DIMENSION
  5
5BB
330
1F
100
AcDbEntity
  8
Bemaßungen_TC_020513_DIN_
100
AcDbDimension
  2
*D8
 10
485.9577066587202
 20
238.7135836700154
 30
0.0
 11
474.2282930175128
 21
207.9208415144901
 31
0.0
 70
    32
  1
63
 71
     5
 42
-1.0
 53
90.0
  3
ME10_DIM_15
100
AcDbAlignedDimension
 13
430.0693982010045
 23
175.7135836700161
 33
0.0
 14
417.8193982010083
 24
238.7135836700161
 34
0.0
 50
90.0
100
AcDbRotatedDimension
  0
DIMENSION
  5
5C6
330
1F
100
AcDbEntity
  8
Bemaßungen_TC_020513_DIN_
100
AcDbDimension
  2
*D9
 10
112.6185216909834
 20
303.2135836700152
 30
0.0
 11
98.58375894265134
 21
242.3060802593741
 31
0.0
 70
    32
  1
127,5
 71
     5
 42
-1.0
 53
90.0
  3
ME10_DIM_16
100
AcDbAlignedDimension
 13
143.9578251735703
 23
175.7135836700161
 33
0.0
 14
193.4578251735703
 24
303.213583670016
 34
0.0
 50
90.0
100
AcDbRotatedDimension
  0
DIMENSION
  5
5D1
330
1F
100
AcDbEntity
  8
Bemaßungen_TC_020513_DIN_
100
AcDbDimension
  2
*D10
 10
148.9578251735707
 20
327.5752752123039
 30
0.0
 11
203.6643463195463
 21
339.2999139558305
 31
0.0
 70
    32
  1
107
 71
     5
 42
-1.0
 53
0.00013888888889
  3
ME10_DIM_17
100
AcDbAlignedDimension
 13
255.9578251735703
 23
235.7135836700161
 33
0.0
 14
148.9578251735703
 24
235.7135836700161
 34
0.0
100
AcDbRotatedDimension
  0
DIMENSION
  5
5DC
330
1F
100
AcDbEntity
  8
Bemaßungen_TC_020513_DIN_
100
AcDbDimension
  2
*D11
 10
447.5033481727277
 20
327.5752752123041
 30
0.0
 11
401.6377306220662
 21
339.3046888535114
 31
0.0
 70
    32
  1
93
 71
     5
 42
-1.0
 53
0.00013888888889
  3
ME10_DIM_18
100
AcDbAlignedDimension
 13
354.3193982010093
 23
295.213583670016
 33
0.0
 14
447.5033481727274
 24
220.7135836700161
 34
0.0
100
AcDbRotatedDimension
  0
DIMENSION
  5
5E7
330
1F
100
AcDbEntity
  8
Bemaßungen_TC_020513_DIN_
100
AcDbDimension
  2
*D12
 10
293.1483724372522
 20
209.6555836700159
 30
0.0
 11
281.2285330258507
 21
193.996953383522
 31
0.0
 70
    32
  1
PG21
 71
     5
 42
-1.0
 53
90.0
  3
ME10_DIM_19
100
AcDbAlignedDimension
 13
260.9578251735703
 23
180.551583670016
 33
0.0
 14
260.9578251735703
 24
209.6555836700161
 34
0.0
 50
90.0
100
AcDbRotatedDimension
  0
ENDSEC
  0
SECTION
  2
OBJECTS
  0
DICTIONARY
  5
C
330
0
100
AcDbDictionary
281
     1
  3
ACAD_GROUP
350
D
  3
ACAD_LAYOUT
350
1A
  3
ACAD_MATERIAL
350
3B
  3
ACAD_MLEADERSTYLE
350
5EA
  3
ACAD_MLINESTYLE
350
17
  3
ACAD_PLOTSETTINGS
350
19
  3
ACAD_PLOTSTYLENAME
350
E
  3
ACAD_VISUALSTYLE
350
2A
  3
AcDbVariableDictionary
350
5E8
  0
DICTIONARY
  5
D
102
{ACAD_REACTORS
330
C
102
}
330
C
100
AcDbDictionary
281
     1
  0
DICTIONARY
  5
1A
102
{ACAD_REACTORS
330
C
102
}
330
C
100
AcDbDictionary
281
     1
  3
Layout1
350
1E
  3
Layout2
350
26
  3
Model
350
22
  0
DICTIONARY
  5
3B
102
{ACAD_REACTORS
330
C
102
}
330
C
100
AcDbDictionary
281
     1
  3
ByBlock
350
3D
  3
ByLayer
350
3C
  3
Global
350
3E
  0
DICTIONARY
  5
5EA
102
{ACAD_REACTORS
330
C
102
}
330
C
100
AcDbDictionary
281
     1
  0
DICTIONARY
  5
17
102
{ACAD_REACTORS
330
C
102
}
330
C
100
AcDbDictionary
281
     1
  3
Standard
350
18
  0
DICTIONARY
  5
19
102
{ACAD_REACTORS
330
C
102
}
330
C
100
AcDbDictionary
281
     1
  0
ACDBDICTIONARYWDFLT
  5
E
102
{ACAD_REACTORS
330
C
102
}
330
C
100
AcDbDictionary
281
     1
  3
Normal
350
F
100
AcDbDictionaryWithDefault
340
F
  0
DICTIONARY
  5
2A
102
{ACAD_REACTORS
330
C
102
}
330
C
100
AcDbDictionary
281
     1
  3
2dWireframe
350
2F
  3
3D Hidden
350
31
  3
3dWireframe
350
30
  3
Basic
350
32
  3
Brighten
350
36
  3
ColorChange
350
3A
  3
Conceptual
350
34
  3
Dim
350
35
  3
Facepattern
350
39
  3
Flat
350
2B
  3
FlatWithEdges
350
2C
  3
Gouraud
350
2D
  3
GouraudWithEdges
350
2E
  3
Linepattern
350
38
  3
Realistic
350
33
  3
Thicken
350
37
  0
DICTIONARY
  5
5E8
102
{ACAD_REACTORS
330
C
102
}
330
C
100
AcDbDictionary
281
     1
  3
DIMASSOC
350
5EB
  3
HIDETEXT
350
5EC
  0
LAYOUT
  5
1E
102
{ACAD_REACTORS
330
1A
102
}
330
1A
100
AcDbPlotSettings
  1

  2
none_device
  4

  6

 40
0.0
 41
0.0
 42
0.0
 43
0.0
 44
0.0
 45
0.0
 46
0.0
 47
0.0
 48
0.0
 49
0.0
140
0.0
141
0.0
142
1.0
143
1.0
 70
   688
 72
     0
 73
     0
 74
     5
  7

 75
    16
147
1.0
148
0.0
149
0.0
100
AcDbLayout
  1
Layout1
 70
     1
 71
     1
 10
0.0
 20
0.0
 11
12.0
 21
9.0
 12
0.0
 22
0.0
 32
0.0
 14
1.00000000000000E+20
 24
1.00000000000000E+20
 34
1.00000000000000E+20
 15
-1.00000000000000E+20
 25
-1.00000000000000E+20
 35
-1.00000000000000E+20
146
0.0
 13
0.0
 23
0.0
 33
0.0
 16
1.0
 26
0.0
 36
0.0
 17
0.0
 27
1.0
 37
0.0
 76
     0
330
1B
  0
LAYOUT
  5
26
102
{ACAD_REACTORS
330
1A
102
}
330
1A
100
AcDbPlotSettings
  1

  2
none_device
  4

  6

 40
0.0
 41
0.0
 42
0.0
 43
0.0
 44
0.0
 45
0.0
 46
0.0
 47
0.0
 48
0.0
 49
0.0
140
0.0
141
0.0
142
1.0
143
1.0
 70
   688
 72
     0
 73
     0
 74
     5
  7

 75
    16
147
1.0
148
0.0
149
0.0
100
AcDbLayout
  1
Layout2
 70
     1
 71
     2
 10
0.0
 20
0.0
 11
0.0
 21
0.0
 12
0.0
 22
0.0
 32
0.0
 14
0.0
 24
0.0
 34
0.0
 15
0.0
 25
0.0
 35
0.0
146
0.0
 13
0.0
 23
0.0
 33
0.0
 16
1.0
 26
0.0
 36
0.0
 17
0.0
 27
1.0
 37
0.0
 76
     0
330
23
  0
LAYOUT
  5
22
102
{ACAD_REACTORS
330
1A
102
}
330
1A
100
AcDbPlotSettings
  1

  2
none_device
  4

  6

 40
0.0
 41
0.0
 42
0.0
 43
0.0
 44
0.0
 45
0.0
 46
0.0
 47
0.0
 48
0.0
 49
0.0
140
0.0
141
0.0
142
1.0
143
1.0
 70
  1712
 72
     0
 73
     0
 74
     0
  7

 75
     0
147
1.0
148
0.0
149
0.0
100
AcDbLayout
  1
Model
 70
     1
 71
     0
 10
0.0
 20
0.0
 11
12.0
 21
9.0
 12
0.0
 22
0.0
 32
0.0
 14
0.0
 24
0.0
 34
0.0
 15
594.0000000000005
 25
420.0000000000002
 35
0.0
146
0.0
 13
0.0
 23
0.0
 33
0.0
 16
1.0
 26
0.0
 36
0.0
 17
0.0
 27
1.0
 37
0.0
 76
     0
330
1F
331
29
  0
MATERIAL
  5
3D
102
{ACAD_REACTORS
330
3B
102
}
102
{ACAD_XDICTIONARY
360
60F
102
}
330
3B
100
AcDbMaterial
  1
ByBlock
  0
MATERIAL
  5
3C
102
{ACAD_REACTORS
330
3B
102
}
102
{ACAD_XDICTIONARY
360
60D
102
}
330
3B
100
AcDbMaterial
  1
ByLayer
  0
MATERIAL
  5
3E
102
{ACAD_REACTORS
330
3B
102
}
102
{ACAD_XDICTIONARY
360
611
102
}
330
3B
100
AcDbMaterial
  1
Global
  0
MLINESTYLE
  5
18
102
{ACAD_REACTORS
330
17
102
}
330
17
100
AcDbMlineStyle
  2
Standard
 70
     0
  3

 62
   256
 51
90.0
 52
90.0
 71
     2
 49
0.5
 62
   256
  6
BYLAYER
 49
-0.5
 62
   256
  6
BYLAYER
  0
ACDBPLACEHOLDER
  5
F
102
{ACAD_REACTORS
330
E
102
}
330
E
  0
VISUALSTYLE
  5
2F
102
{ACAD_REACTORS
330
2A
102
}
102
{ACAD_XDICTIONARY
360
5F5
102
}
330
2A
100
AcDbVisualStyle
  2
2dWireframe
 70
     4
 71
     0
 72
     2
 73
     0
 90
        0
 40
-0.6
 41
-30.0
 62
     5
 63
     7
 74
     1
 91
        4
 64
     7
 65
   257
 75
     1
175
     1
 42
1.0
 92
        0
 66
   257
 43
1.0
 76
     1
 77
     6
 78
     2
 67
     7
 79
     5
170
     0
171
     0
290
     0
174
     0
 93
        1
 44
0.0
173
     0
291
     0
 45
0.0
1001
ACAD
1000
AcDbSavedByObjectVersion
1070
     0
  0
VISUALSTYLE
  5
31
102
{ACAD_REACTORS
330
2A
102
}
102
{ACAD_XDICTIONARY
360
5F9
102
}
330
2A
100
AcDbVisualStyle
  2
3D Hidden
 70
     6
 71
     1
 72
     2
 73
     2
 90
        0
 40
-0.6
 41
-30.0
 62
     5
 63
     7
 74
     2
 91
        2
 64
     7
 65
   257
 75
     2
175
     1
 42
40.0
 92
        0
 66
   257
 43
1.0
 76
     1
 77
     6
 78
     2
 67
     7
 79
     3
170
     0
171
     0
290
     0
174
     0
 93
        1
 44
0.0
173
     0
291
     0
 45
0.0
1001
ACAD
1000
AcDbSavedByObjectVersion
1070
     0
  0
VISUALSTYLE
  5
30
102
{ACAD_REACTORS
330
2A
102
}
102
{ACAD_XDICTIONARY
360
5F7
102
}
330
2A
100
AcDbVisualStyle
  2
3dWireframe
 70
     5
 71
     0
 72
     2
 73
     0
 90
        0
 40
-0.6
 41
-30.0
 62
     5
 63
     7
 74
     1
 91
        4
 64
     7
 65
   257
 75
     1
175
     1
 42
1.0
 92
        0
 66
   257
 43
1.0
 76
     1
 77
     6
 78
     2
 67
     7
 79
     5
170
     0
171
     0
290
     0
174
     0
 93
        1
 44
0.0
173
     0
291
     0
 45
0.0
1001
ACAD
1000
AcDbSavedByObjectVersion
1070
     0
  0
VISUALSTYLE
  5
32
102
{ACAD_REACTORS
330
2A
102
}
102
{ACAD_XDICTIONARY
360
5FB
102
}
330
2A
100
AcDbVisualStyle
  2
Basic
 70
     7
 71
     1
 72
     0
 73
     1
 90
        0
 40
-0.6
 41
-30.0
 62
     5
 63
     7
 74
     0
 91
        4
 64
     7
 65
   257
 75
     1
175
     1
 42
1.0
 92
        8
 66
     7
 43
1.0
 76
     1
 77
     6
 78
     2
 67
     7
 79
     5
170
     0
171
     0
290
     0
174
     0
 93
        1
 44
0.0
173
     0
291
     1
 45
0.0
1001
ACAD
1000
AcDbSavedByObjectVersion
1070
     0
  0
VISUALSTYLE
  5
36
102
{ACAD_REACTORS
330
2A
102
}
102
{ACAD_XDICTIONARY
360
603
102
}
330
2A
100
AcDbVisualStyle
  2
Brighten
 70
    12
 71
     2
 72
     2
 73
     0
 90
        0
 40
-0.6
 41
-30.0
 62
     5
 63
     7
 74
     1
 91
        4
 64
     7
 65
   257
 75
     1
175
     1
 42
1.0
 92
        8
 66
     7
 43
1.0
 76
     1
 77
     6
 78
     2
 67
     7
 79
     5
170
     0
171
     0
290
     0
174
     0
 93
        1
 44
50.0
173
     0
291
     1
 45
0.0
1001
ACAD
1000
AcDbSavedByObjectVersion
1070
     0
  0
VISUALSTYLE
  5
3A
102
{ACAD_REACTORS
330
2A
102
}
102
{ACAD_XDICTIONARY
360
60B
102
}
330
2A
100
AcDbVisualStyle
  2
ColorChange
 70
    16
 71
     2
 72
     2
 73
     3
 90
        0
 40
-0.6
 41
-30.0
 62
     5
 63
     8
 74
     1
 91
        4
 64
     7
 65
   257
 75
     1
175
     1
 42
1.0
 92
        8
 66
     8
 43
1.0
 76
     1
 77
     6
 78
     2
 67
     7
 79
     5
170
     0
171
     0
290
     0
174
     0
 93
        1
 44
0.0
173
     0
291
     1
 45
0.0
1001
ACAD
1000
AcDbSavedByObjectVersion
1070
     0
  0
VISUALSTYLE
  5
34
102
{ACAD_REACTORS
330
2A
102
}
102
{ACAD_XDICTIONARY
360
5FF
102
}
330
2A
100
AcDbVisualStyle
  2
Conceptual
 70
     9
 71
     3
 72
     2
 73
     0
 90
        0
 40
-0.6
 41
-30.0
 62
     5
 63
     7
 74
     2
 91
        2
 64
     7
 65
   257
 75
     1
175
     1
 42
40.0
 92
        8
 66
     7
 43
1.0
 76
     1
 77
     6
 78
     2
 67
     7
 79
     3
170
     0
171
     0
290
     0
174
     0
 93
        1
 44
0.0
173
     0
291
     0
 45
0.0
1001
ACAD
1000
AcDbSavedByObjectVersion
1070
     0
  0
VISUALSTYLE
  5
35
102
{ACAD_REACTORS
330
2A
102
}
102
{ACAD_XDICTIONARY
360
601
102
}
330
2A
100
AcDbVisualStyle
  2
Dim
 70
    11
 71
     2
 72
     2
 73
     0
 90
        0
 40
-0.6
 41
-30.0
 62
     5
 63
     7
 74
     1
 91
        4
 64
     7
 65
   257
 75
     1
175
     1
 42
1.0
 92
        8
 66
     7
 43
1.0
 76
     1
 77
     6
 78
     2
 67
     7
 79
     5
170
     0
171
     0
290
     0
174
     0
 93
        1
 44
-50.0
173
     0
291
     1
 45
0.0
1001
ACAD
1000
AcDbSavedByObjectVersion
1070
     0
  0
VISUALSTYLE
  5
39
102
{ACAD_REACTORS
330
2A
102
}
102
{ACAD_XDICTIONARY
360
609
102
}
330
2A
100
AcDbVisualStyle
  2
Facepattern
 70
    15
 71
     2
 72
     2
 73
     0
 90
        0
 40
-0.6
 41
-30.0
 62
     5
 63
     7
 74
     1
 91
        4
 64
     7
 65
   257
 75
     1
175
     1
 42
1.0
 92
        8
 66
     7
 43
1.0
 76
     1
 77
     6
 78
     2
 67
     7
 79
     5
170
     0
171
     0
290
     0
174
     0
 93
        1
 44
0.0
173
     0
291
     1
 45
0.0
1001
ACAD
1000
AcDbSavedByObjectVersion
1070
     0
  0
VISUALSTYLE
  5
2B
102
{ACAD_REACTORS
330
2A
102
}
102
{ACAD_XDICTIONARY
360
5ED
102
}
330
2A
100
AcDbVisualStyle
  2
Flat
 70
     0
 71
     2
 72
     1
 73
     1
 90
        2
 40
-0.6
 41
30.0
 62
     5
 63
     7
 74
     0
 91
        4
 64
     7
 65
   257
 75
     1
175
     1
 42
1.0
 92
        8
 66
     7
 43
1.0
 76
     1
 77
     6
 78
     2
 67
     7
 79
     5
170
     0
171
     0
290
     0
174
     0
 93
       13
 44
0.0
173
     0
291
     1
 45
0.0
1001
ACAD
1000
AcDbSavedByObjectVersion
1070
     0
  0
VISUALSTYLE
  5
2C
102
{ACAD_REACTORS
330
2A
102
}
102
{ACAD_XDICTIONARY
360
5EF
102
}
330
2A
100
AcDbVisualStyle
  2
FlatWithEdges
 70
     1
 71
     2
 72
     1
 73
     1
 90
        2
 40
-0.6
 41
30.0
 62
     5
 63
     7
 74
     1
 91
        4
 64
     7
 65
   257
 75
     1
175
     1
 42
1.0
 92
        0
 66
   257
 43
1.0
 76
     1
 77
     6
 78
     2
 67
     7
 79
     5
170
     0
171
     0
290
     0
174
     0
 93
       13
 44
0.0
173
     0
291
     1
 45
0.0
1001
ACAD
1000
AcDbSavedByObjectVersion
1070
     0
  0
VISUALSTYLE
  5
2D
102
{ACAD_REACTORS
330
2A
102
}
102
{ACAD_XDICTIONARY
360
5F1
102
}
330
2A
100
AcDbVisualStyle
  2
Gouraud
 70
     2
 71
     2
 72
     2
 73
     1
 90
        2
 40
-0.6
 41
30.0
 62
     5
 63
     7
 74
     0
 91
        4
 64
     7
 65
   257
 75
     1
175
     1
 42
1.0
 92
        0
 66
     7
 43
1.0
 76
     1
 77
     6
 78
     2
 67
     7
 79
     5
170
     0
171
     0
290
     0
174
     0
 93
       13
 44
0.0
173
     0
291
     1
 45
0.0
1001
ACAD
1000
AcDbSavedByObjectVersion
1070
     0
  0
VISUALSTYLE
  5
2E
102
{ACAD_REACTORS
330
2A
102
}
102
{ACAD_XDICTIONARY
360
5F3
102
}
330
2A
100
AcDbVisualStyle
  2
GouraudWithEdges
 70
     3
 71
     2
 72
     2
 73
     1
 90
        2
 40
-0.6
 41
30.0
 62
     5
 63
     7
 74
     1
 91
        4
 64
     7
 65
   257
 75
     1
175
     1
 42
1.0
 92
        0
 66
   257
 43
1.0
 76
     1
 77
     6
 78
     2
 67
     7
 79
     5
170
     0
171
     0
290
     0
174
     0
 93
       13
 44
0.0
173
     0
291
     1
 45
0.0
1001
ACAD
1000
AcDbSavedByObjectVersion
1070
     0
  0
VISUALSTYLE
  5
38
102
{ACAD_REACTORS
330
2A
102
}
102
{ACAD_XDICTIONARY
360
607
102
}
330
2A
100
AcDbVisualStyle
  2
Linepattern
 70
    14
 71
     2
 72
     2
 73
     0
 90
        0
 40
-0.6
 41
-30.0
 62
     5
 63
     7
 74
     1
 91
        4
 64
     7
 65
   257
 75
     7
175
     7
 42
1.0
 92
        8
 66
     7
 43
1.0
 76
     1
 77
     6
 78
     2
 67
     7
 79
     5
170
     0
171
     0
290
     0
174
     0
 93
        1
 44
0.0
173
     0
291
     1
 45
0.0
1001
ACAD
1000
AcDbSavedByObjectVersion
1070
     0
  0
VISUALSTYLE
  5
33
102
{ACAD_REACTORS
330
2A
102
}
102
{ACAD_XDICTIONARY
360
5FD
102
}
330
2A
100
AcDbVisualStyle
  2
Realistic
 70
     8
 71
     2
 72
     2
 73
     0
 90
        0
 40
-0.6
 41
-30.0
 62
     5
 63
     7
 74
     1
 91
        0
 64
     7
 65
   257
 75
     1
175
     1
 42
1.0
 92
        8
 66
     8
 43
1.0
 76
     1
 77
     6
 78
     2
 67
     7
 79
     5
170
     0
171
     0
290
     0
174
     0
 93
       13
 44
0.0
173
     0
291
     0
 45
0.0
1001
ACAD
1000
AcDbSavedByObjectVersion
1070
     0
  0
VISUALSTYLE
  5
37
102
{ACAD_REACTORS
330
2A
102
}
102
{ACAD_XDICTIONARY
360
605
102
}
330
2A
100
AcDbVisualStyle
  2
Thicken
 70
    13
 71
     2
 72
     2
 73
     0
 90
        0
 40
-0.6
 41
-30.0
 62
     5
 63
     7
 74
     1
 91
        4
 64
     7
 65
   257
 75
     1
175
     1
 42
1.0
 92
       12
 66
     7
 43
1.0
 76
     1
 77
     6
 78
     2
 67
     7
 79
     5
170
     0
171
     0
290
     0
174
     0
 93
        1
 44
0.0
173
     0
291
     1
 45
0.0
1001
ACAD
1000
AcDbSavedByObjectVersion
1070
     0
  0
DICTIONARYVAR
  5
5EB
102
{ACAD_REACTORS
330
5E8
102
}
330
5E8
100
DictionaryVariables
280
     0
  1
2
  0
DICTIONARYVAR
  5
5EC
102
{ACAD_REACTORS
330
5E8
102
}
330
5E8
100
DictionaryVariables
280
     0
  1
1
  0
DICTIONARY
  5
60F
330
3D
100
AcDbDictionary
280
     1
281
     1
  3
ACAD_XREC_ROUNDTRIP
360
610
  0
DICTIONARY
  5
60D
330
3C
100
AcDbDictionary
280
     1
281
     1
  3
ACAD_XREC_ROUNDTRIP
360
60E
  0
DICTIONARY
  5
611
330
3E
100
AcDbDictionary
280
     1
281
     1
  3
ACAD_XREC_ROUNDTRIP
360
612
  0
DICTIONARY
  5
5F5
330
2F
100
AcDbDictionary
280
     1
281
     1
  3
ACAD_XREC_ROUNDTRIP
360
5F6
  0
DICTIONARY
  5
5F9
330
31
100
AcDbDictionary
280
     1
281
     1
  3
ACAD_XREC_ROUNDTRIP
360
5FA
  0
DICTIONARY
  5
5F7
330
30
100
AcDbDictionary
280
     1
281
     1
  3
ACAD_XREC_ROUNDTRIP
360
5F8
  0
DICTIONARY
  5
5FB
330
32
100
AcDbDictionary
280
     1
281
     1
  3
ACAD_XREC_ROUNDTRIP
360
5FC
  0
DICTIONARY
  5
603
330
36
100
AcDbDictionary
280
     1
281
     1
  3
ACAD_XREC_ROUNDTRIP
360
604
  0
DICTIONARY
  5
60B
330
3A
100
AcDbDictionary
280
     1
281
     1
  3
ACAD_XREC_ROUNDTRIP
360
60C
  0
DICTIONARY
  5
5FF
330
34
100
AcDbDictionary
280
     1
281
     1
  3
ACAD_XREC_ROUNDTRIP
360
600
  0
DICTIONARY
  5
601
330
35
100
AcDbDictionary
280
     1
281
     1
  3
ACAD_XREC_ROUNDTRIP
360
602
  0
DICTIONARY
  5
609
330
39
100
AcDbDictionary
280
     1
281
     1
  3
ACAD_XREC_ROUNDTRIP
360
60A
  0
DICTIONARY
  5
5ED
330
2B
100
AcDbDictionary
280
     1
281
     1
  3
ACAD_XREC_ROUNDTRIP
360
5EE
  0
DICTIONARY
  5
5EF
330
2C
100
AcDbDictionary
280
     1
281
     1
  3
ACAD_XREC_ROUNDTRIP
360
5F0
  0
DICTIONARY
  5
5F1
330
2D
100
AcDbDictionary
280
     1
281
     1
  3
ACAD_XREC_ROUNDTRIP
360
5F2
  0
DICTIONARY
  5
5F3
330
2E
100
AcDbDictionary
280
     1
281
     1
  3
ACAD_XREC_ROUNDTRIP
360
5F4
  0
DICTIONARY
  5
607
330
38
100
AcDbDictionary
280
     1
281
     1
  3
ACAD_XREC_ROUNDTRIP
360
608
  0
DICTIONARY
  5
5FD
330
33
100
AcDbDictionary
280
     1
281
     1
  3
ACAD_XREC_ROUNDTRIP
360
5FE
  0
DICTIONARY
  5
605
330
37
100
AcDbDictionary
280
     1
281
     1
  3
ACAD_XREC_ROUNDTRIP
360
606
  0
XRECORD
  5
610
102
{ACAD_REACTORS
330
60F
102
}
330
60F
100
AcDbXrecord
280
     1
102
MATERIAL
148
0.0
149
0.0
149
0.0
 93
        0
 94
      127
282
     0
 72
     1
 77
     1
171
     1
175
     1
179
     1
273
     0
  0
XRECORD
  5
60E
102
{ACAD_REACTORS
330
60D
102
}
330
60D
100
AcDbXrecord
280
     1
102
MATERIAL
148
0.0
149
0.0
149
0.0
 93
        0
 94
      127
282
     0
 72
     1
 77
     1
171
     1
175
     1
179
     1
273
     0
  0
XRECORD
  5
612
102
{ACAD_REACTORS
330
611
102
}
330
611
100
AcDbXrecord
280
     1
102
MATERIAL
148
0.0
149
0.0
149
0.0
 93
        0
 94
      127
282
     0
 72
     1
 77
     1
171
     1
175
     1
179
     1
273
     0
  0
XRECORD
  5
5F6
102
{ACAD_REACTORS
330
5F5
102
}
330
5F5
100
AcDbXrecord
280
     1
102
RTVSPropertyOp0
 70
     1
102
RTVSPropertyOp1
 70
     1
102
RTVSPropertyOp2
 70
     1
102
RTVSPropertyOp3
 70
     1
102
RTVSPropertyOp4
 70
     1
102
RTVSPropertyOp5
 70
     1
102
RTVSPropertyOp6
 70
     1
102
RTVSPropertyOp7
 70
     1
102
RTVSPropertyOp8
 70
     1
102
RTVSPropertyOp9
 70
     1
102
RTVSPropertyOp10
 70
     1
102
RTVSPropertyOp11
 70
     1
102
RTVSPropertyOp12
 70
     1
102
RTVSPropertyOp13
 70
     1
102
RTVSPropertyOp14
 70
     1
102
RTVSPropertyOp15
 70
     1
102
RTVSPropertyOp16
 70
     1
102
RTVSPropertyOp17
 70
     1
102
RTVSPropertyOp18
 70
     1
102
RTVSPropertyOp19
 70
     1
102
RTVSPropertyOp20
 70
     1
102
RTVSPropertyOp21
 70
     1
102
RTVSPropertyOp22
 70
     1
102
RTVSPropertyOp23
 70
     1
102
RTVSPropertyOp24
 70
     1
102
RTVSPropertyOp25
 70
     1
102
RTVSPropertyOp26
 70
     1
102
RTVSPropertyOp27
 70
     1
102
RTVSPropertyOp28
 70
     1
102
RTVSPropertyOp29
 70
     1
102
RTVSPropertyOp30
 70
     1
102
RTVSPropertyOp31
 70
     1
102
RTVSPropertyOp32
 70
     1
  0
XRECORD
  5
5FA
102
{ACAD_REACTORS
330
5F9
102
}
330
5F9
100
AcDbXrecord
280
     1
102
RTVSPropertyOp0
 70
     1
102
RTVSPropertyOp1
 70
     1
102
RTVSPropertyOp2
 70
     1
102
RTVSPropertyOp3
 70
     1
102
RTVSPropertyOp4
 70
     1
102
RTVSPropertyOp5
 70
     1
102
RTVSPropertyOp6
 70
     1
102
RTVSPropertyOp7
 70
     1
102
RTVSPropertyOp8
 70
     1
102
RTVSPropertyOp9
 70
     1
102
RTVSPropertyOp10
 70
     1
102
RTVSPropertyOp11
 70
     1
102
RTVSPropertyOp12
 70
     1
102
RTVSPropertyOp13
 70
     1
102
RTVSPropertyOp14
 70
     1
102
RTVSPropertyOp15
 70
     1
102
RTVSPropertyOp16
 70
     1
102
RTVSPropertyOp17
 70
     1
102
RTVSPropertyOp18
 70
     1
102
RTVSPropertyOp19
 70
     1
102
RTVSPropertyOp20
 70
     1
102
RTVSPropertyOp21
 70
     1
102
RTVSPropertyOp22
 70
     1
102
RTVSPropertyOp23
 70
     1
102
RTVSPropertyOp24
 70
     1
102
RTVSPropertyOp25
 70
     1
102
RTVSPropertyOp26
 70
     1
102
RTVSPropertyOp27
 70
     1
102
RTVSPropertyOp28
 70
     1
102
RTVSPropertyOp29
 70
     1
102
RTVSPropertyOp30
 70
     1
102
RTVSPropertyOp31
 70
     1
102
RTVSPropertyOp32
 70
     1
  0
XRECORD
  5
5F8
102
{ACAD_REACTORS
330
5F7
102
}
330
5F7
100
AcDbXrecord
280
     1
102
RTVSPropertyOp0
 70
     1
102
RTVSPropertyOp1
 70
     1
102
RTVSPropertyOp2
 70
     1
102
RTVSPropertyOp3
 70
     1
102
RTVSPropertyOp4
 70
     1
102
RTVSPropertyOp5
 70
     1
102
RTVSPropertyOp6
 70
     1
102
RTVSPropertyOp7
 70
     1
102
RTVSPropertyOp8
 70
     1
102
RTVSPropertyOp9
 70
     1
102
RTVSPropertyOp10
 70
     1
102
RTVSPropertyOp11
 70
     1
102
RTVSPropertyOp12
 70
     1
102
RTVSPropertyOp13
 70
     1
102
RTVSPropertyOp14
 70
     1
102
RTVSPropertyOp15
 70
     1
102
RTVSPropertyOp16
 70
     1
102
RTVSPropertyOp17
 70
     1
102
RTVSPropertyOp18
 70
     1
102
RTVSPropertyOp19
 70
     1
102
RTVSPropertyOp20
 70
     1
102
RTVSPropertyOp21
 70
     1
102
RTVSPropertyOp22
 70
     1
102
RTVSPropertyOp23
 70
     1
102
RTVSPropertyOp24
 70
     1
102
RTVSPropertyOp25
 70
     1
102
RTVSPropertyOp26
 70
     1
102
RTVSPropertyOp27
 70
     1
102
RTVSPropertyOp28
 70
     1
102
RTVSPropertyOp29
 70
     1
102
RTVSPropertyOp30
 70
     1
102
RTVSPropertyOp31
 70
     1
102
RTVSPropertyOp32
 70
     1
  0
XRECORD
  5
5FC
102
{ACAD_REACTORS
330
5FB
102
}
330
5FB
100
AcDbXrecord
280
     1
102
RTVSPropertyOp0
 70
     1
102
RTVSPropertyOp1
 70
     1
102
RTVSPropertyOp2
 70
     1
102
RTVSPropertyOp3
 70
     1
102
RTVSPropertyOp4
 70
     1
102
RTVSPropertyOp5
 70
     1
102
RTVSPropertyOp6
 70
     1
102
RTVSPropertyOp7
 70
     1
102
RTVSPropertyOp8
 70
     1
102
RTVSPropertyOp9
 70
     1
102
RTVSPropertyOp10
 70
     1
102
RTVSPropertyOp11
 70
     1
102
RTVSPropertyOp12
 70
     1
102
RTVSPropertyOp13
 70
     1
102
RTVSPropertyOp14
 70
     1
102
RTVSPropertyOp15
 70
     1
102
RTVSPropertyOp16
 70
     1
102
RTVSPropertyOp17
 70
     1
102
RTVSPropertyOp18
 70
     1
102
RTVSPropertyOp19
 70
     1
102
RTVSPropertyOp20
 70
     1
102
RTVSPropertyOp21
 70
     1
102
RTVSPropertyOp22
 70
     1
102
RTVSPropertyOp23
 70
     1
102
RTVSPropertyOp24
 70
     1
102
RTVSPropertyOp25
 70
     1
102
RTVSPropertyOp26
 70
     1
102
RTVSPropertyOp27
 70
     1
102
RTVSPropertyOp28
 70
     1
102
RTVSPropertyOp29
 70
     1
102
RTVSPropertyOp30
 70
     1
102
RTVSPropertyOp31
 70
     1
102
RTVSPropertyOp32
 70
     1
  0
XRECORD
  5
604
102
{ACAD_REACTORS
330
603
102
}
330
603
100
AcDbXrecord
280
     1
102
RTVSPropertyOp0
 70
     1
102
RTVSPropertyOp1
 70
     1
102
RTVSPropertyOp2
 70
     1
102
RTVSPropertyOp3
 70
     1
102
RTVSPropertyOp4
 70
     1
102
RTVSPropertyOp5
 70
     1
102
RTVSPropertyOp6
 70
     1
102
RTVSPropertyOp7
 70
     1
102
RTVSPropertyOp8
 70
     1
102
RTVSPropertyOp9
 70
     1
102
RTVSPropertyOp10
 70
     1
102
RTVSPropertyOp11
 70
     1
102
RTVSPropertyOp12
 70
     1
102
RTVSPropertyOp13
 70
     1
102
RTVSPropertyOp14
 70
     1
102
RTVSPropertyOp15
 70
     1
102
RTVSPropertyOp16
 70
     1
102
RTVSPropertyOp17
 70
     1
102
RTVSPropertyOp18
 70
     1
102
RTVSPropertyOp19
 70
     1
102
RTVSPropertyOp20
 70
     1
102
RTVSPropertyOp21
 70
     1
102
RTVSPropertyOp22
 70
     1
102
RTVSPropertyOp23
 70
     1
102
RTVSPropertyOp24
 70
     1
102
RTVSPropertyOp25
 70
     1
102
RTVSPropertyOp26
 70
     1
102
RTVSPropertyOp27
 70
     1
102
RTVSPropertyOp28
 70
     1
102
RTVSPropertyOp29
 70
     1
102
RTVSPropertyOp30
 70
     1
102
RTVSPropertyOp31
 70
     1
102
RTVSPropertyOp32
 70
     1
  0
XRECORD
  5
60C
102
{ACAD_REACTORS
330
60B
102
}
330
60B
100
AcDbXrecord
280
     1
102
RTVSPropertyOp0
 70
     1
102
RTVSPropertyOp1
 70
     1
102
RTVSPropertyOp2
 70
     1
102
RTVSPropertyOp3
 70
     1
102
RTVSPropertyOp4
 70
     1
102
RTVSPropertyOp5
 70
     1
102
RTVSPropertyOp6
 70
     1
102
RTVSPropertyOp7
 70
     1
102
RTVSPropertyOp8
 70
     1
102
RTVSPropertyOp9
 70
     1
102
RTVSPropertyOp10
 70
     1
102
RTVSPropertyOp11
 70
     1
102
RTVSPropertyOp12
 70
     1
102
RTVSPropertyOp13
 70
     1
102
RTVSPropertyOp14
 70
     1
102
RTVSPropertyOp15
 70
     1
102
RTVSPropertyOp16
 70
     1
102
RTVSPropertyOp17
 70
     1
102
RTVSPropertyOp18
 70
     1
102
RTVSPropertyOp19
 70
     1
102
RTVSPropertyOp20
 70
     1
102
RTVSPropertyOp21
 70
     1
102
RTVSPropertyOp22
 70
     1
102
RTVSPropertyOp23
 70
     1
102
RTVSPropertyOp24
 70
     1
102
RTVSPropertyOp25
 70
     1
102
RTVSPropertyOp26
 70
     1
102
RTVSPropertyOp27
 70
     1
102
RTVSPropertyOp28
 70
     1
102
RTVSPropertyOp29
 70
     1
102
RTVSPropertyOp30
 70
     1
102
RTVSPropertyOp31
 70
     1
102
RTVSPropertyOp32
 70
     1
  0
XRECORD
  5
600
102
{ACAD_REACTORS
330
5FF
102
}
330
5FF
100
AcDbXrecord
280
     1
102
RTVSPropertyOp0
 70
     1
102
RTVSPropertyOp1
 70
     1
102
RTVSPropertyOp2
 70
     1
102
RTVSPropertyOp3
 70
     1
102
RTVSPropertyOp4
 70
     1
102
RTVSPropertyOp5
 70
     1
102
RTVSPropertyOp6
 70
     1
102
RTVSPropertyOp7
 70
     1
102
RTVSPropertyOp8
 70
     1
102
RTVSPropertyOp9
 70
     1
102
RTVSPropertyOp10
 70
     1
102
RTVSPropertyOp11
 70
     1
102
RTVSPropertyOp12
 70
     1
102
RTVSPropertyOp13
 70
     1
102
RTVSPropertyOp14
 70
     1
102
RTVSPropertyOp15
 70
     1
102
RTVSPropertyOp16
 70
     1
102
RTVSPropertyOp17
 70
     1
102
RTVSPropertyOp18
 70
     1
102
RTVSPropertyOp19
 70
     1
102
RTVSPropertyOp20
 70
     1
102
RTVSPropertyOp21
 70
     1
102
RTVSPropertyOp22
 70
     1
102
RTVSPropertyOp23
 70
     1
102
RTVSPropertyOp24
 70
     1
102
RTVSPropertyOp25
 70
     1
102
RTVSPropertyOp26
 70
     1
102
RTVSPropertyOp27
 70
     1
102
RTVSPropertyOp28
 70
     1
102
RTVSPropertyOp29
 70
     1
102
RTVSPropertyOp30
 70
     1
102
RTVSPropertyOp31
 70
     1
102
RTVSPropertyOp32
 70
     1
  0
XRECORD
  5
602
102
{ACAD_REACTORS
330
601
102
}
330
601
100
AcDbXrecord
280
     1
102
RTVSPropertyOp0
 70
     1
102
RTVSPropertyOp1
 70
     1
102
RTVSPropertyOp2
 70
     1
102
RTVSPropertyOp3
 70
     1
102
RTVSPropertyOp4
 70
     1
102
RTVSPropertyOp5
 70
     1
102
RTVSPropertyOp6
 70
     1
102
RTVSPropertyOp7
 70
     1
102
RTVSPropertyOp8
 70
     1
102
RTVSPropertyOp9
 70
     1
102
RTVSPropertyOp10
 70
     1
102
RTVSPropertyOp11
 70
     1
102
RTVSPropertyOp12
 70
     1
102
RTVSPropertyOp13
 70
     1
102
RTVSPropertyOp14
 70
     1
102
RTVSPropertyOp15
 70
     1
102
RTVSPropertyOp16
 70
     1
102
RTVSPropertyOp17
 70
     1
102
RTVSPropertyOp18
 70
     1
102
RTVSPropertyOp19
 70
     1
102
RTVSPropertyOp20
 70
     1
102
RTVSPropertyOp21
 70
     1
102
RTVSPropertyOp22
 70
     1
102
RTVSPropertyOp23
 70
     1
102
RTVSPropertyOp24
 70
     1
102
RTVSPropertyOp25
 70
     1
102
RTVSPropertyOp26
 70
     1
102
RTVSPropertyOp27
 70
     1
102
RTVSPropertyOp28
 70
     1
102
RTVSPropertyOp29
 70
     1
102
RTVSPropertyOp30
 70
     1
102
RTVSPropertyOp31
 70
     1
102
RTVSPropertyOp32
 70
     1
  0
XRECORD
  5
60A
102
{ACAD_REACTORS
330
609
102
}
330
609
100
AcDbXrecord
280
     1
102
RTVSPropertyOp0
 70
     1
102
RTVSPropertyOp1
 70
     1
102
RTVSPropertyOp2
 70
     1
102
RTVSPropertyOp3
 70
     1
102
RTVSPropertyOp4
 70
     1
102
RTVSPropertyOp5
 70
     1
102
RTVSPropertyOp6
 70
     1
102
RTVSPropertyOp7
 70
     1
102
RTVSPropertyOp8
 70
     1
102
RTVSPropertyOp9
 70
     1
102
RTVSPropertyOp10
 70
     1
102
RTVSPropertyOp11
 70
     1
102
RTVSPropertyOp12
 70
     1
102
RTVSPropertyOp13
 70
     1
102
RTVSPropertyOp14
 70
     1
102
RTVSPropertyOp15
 70
     1
102
RTVSPropertyOp16
 70
     1
102
RTVSPropertyOp17
 70
     1
102
RTVSPropertyOp18
 70
     1
102
RTVSPropertyOp19
 70
     1
102
RTVSPropertyOp20
 70
     1
102
RTVSPropertyOp21
 70
     1
102
RTVSPropertyOp22
 70
     1
102
RTVSPropertyOp23
 70
     1
102
RTVSPropertyOp24
 70
     1
102
RTVSPropertyOp25
 70
     1
102
RTVSPropertyOp26
 70
     1
102
RTVSPropertyOp27
 70
     1
102
RTVSPropertyOp28
 70
     1
102
RTVSPropertyOp29
 70
     1
102
RTVSPropertyOp30
 70
     1
102
RTVSPropertyOp31
 70
     1
102
RTVSPropertyOp32
 70
     1
  0
XRECORD
  5
5EE
102
{ACAD_REACTORS
330
5ED
102
}
330
5ED
100
AcDbXrecord
280
     1
102
RTVSPropertyOp0
 70
     1
102
RTVSPropertyOp1
 70
     1
102
RTVSPropertyOp2
 70
     1
102
RTVSPropertyOp3
 70
     1
102
RTVSPropertyOp4
 70
     1
102
RTVSPropertyOp5
 70
     1
102
RTVSPropertyOp6
 70
     1
102
RTVSPropertyOp7
 70
     1
102
RTVSPropertyOp8
 70
     1
102
RTVSPropertyOp9
 70
     1
102
RTVSPropertyOp10
 70
     1
102
RTVSPropertyOp11
 70
     1
102
RTVSPropertyOp12
 70
     1
102
RTVSPropertyOp13
 70
     1
102
RTVSPropertyOp14
 70
     1
102
RTVSPropertyOp15
 70
     1
102
RTVSPropertyOp16
 70
     1
102
RTVSPropertyOp17
 70
     1
102
RTVSPropertyOp18
 70
     1
102
RTVSPropertyOp19
 70
     1
102
RTVSPropertyOp20
 70
     1
102
RTVSPropertyOp21
 70
     1
102
RTVSPropertyOp22
 70
     1
102
RTVSPropertyOp23
 70
     1
102
RTVSPropertyOp24
 70
     1
102
RTVSPropertyOp25
 70
     1
102
RTVSPropertyOp26
 70
     1
102
RTVSPropertyOp27
 70
     1
102
RTVSPropertyOp28
 70
     1
102
RTVSPropertyOp29
 70
     1
102
RTVSPropertyOp30
 70
     1
102
RTVSPropertyOp31
 70
     1
102
RTVSPropertyOp32
 70
     1
  0
XRECORD
  5
5F0
102
{ACAD_REACTORS
330
5EF
102
}
330
5EF
100
AcDbXrecord
280
     1
102
RTVSPropertyOp0
 70
     1
102
RTVSPropertyOp1
 70
     1
102
RTVSPropertyOp2
 70
     1
102
RTVSPropertyOp3
 70
     1
102
RTVSPropertyOp4
 70
     1
102
RTVSPropertyOp5
 70
     1
102
RTVSPropertyOp6
 70
     1
102
RTVSPropertyOp7
 70
     1
102
RTVSPropertyOp8
 70
     1
102
RTVSPropertyOp9
 70
     1
102
RTVSPropertyOp10
 70
     1
102
RTVSPropertyOp11
 70
     1
102
RTVSPropertyOp12
 70
     1
102
RTVSPropertyOp13
 70
     1
102
RTVSPropertyOp14
 70
     1
102
RTVSPropertyOp15
 70
     1
102
RTVSPropertyOp16
 70
     1
102
RTVSPropertyOp17
 70
     1
102
RTVSPropertyOp18
 70
     1
102
RTVSPropertyOp19
 70
     1
102
RTVSPropertyOp20
 70
     1
102
RTVSPropertyOp21
 70
     1
102
RTVSPropertyOp22
 70
     1
102
RTVSPropertyOp23
 70
     1
102
RTVSPropertyOp24
 70
     1
102
RTVSPropertyOp25
 70
     1
102
RTVSPropertyOp26
 70
     1
102
RTVSPropertyOp27
 70
     1
102
RTVSPropertyOp28
 70
     1
102
RTVSPropertyOp29
 70
     1
102
RTVSPropertyOp30
 70
     1
102
RTVSPropertyOp31
 70
     1
102
RTVSPropertyOp32
 70
     1
  0
XRECORD
  5
5F2
102
{ACAD_REACTORS
330
5F1
102
}
330
5F1
100
AcDbXrecord
280
     1
102
RTVSPropertyOp0
 70
     1
102
RTVSPropertyOp1
 70
     1
102
RTVSPropertyOp2
 70
     1
102
RTVSPropertyOp3
 70
     1
102
RTVSPropertyOp4
 70
     1
102
RTVSPropertyOp5
 70
     1
102
RTVSPropertyOp6
 70
     1
102
RTVSPropertyOp7
 70
     1
102
RTVSPropertyOp8
 70
     1
102
RTVSPropertyOp9
 70
     1
102
RTVSPropertyOp10
 70
     1
102
RTVSPropertyOp11
 70
     1
102
RTVSPropertyOp12
 70
     1
102
RTVSPropertyOp13
 70
     1
102
RTVSPropertyOp14
 70
     1
102
RTVSPropertyOp15
 70
     1
102
RTVSPropertyOp16
 70
     1
102
RTVSPropertyOp17
 70
     1
102
RTVSPropertyOp18
 70
     1
102
RTVSPropertyOp19
 70
     1
102
RTVSPropertyOp20
 70
     1
102
RTVSPropertyOp21
 70
     1
102
RTVSPropertyOp22
 70
     1
102
RTVSPropertyOp23
 70
     1
102
RTVSPropertyOp24
 70
     1
102
RTVSPropertyOp25
 70
     1
102
RTVSPropertyOp26
 70
     1
102
RTVSPropertyOp27
 70
     1
102
RTVSPropertyOp28
 70
     1
102
RTVSPropertyOp29
 70
     1
102
RTVSPropertyOp30
 70
     1
102
RTVSPropertyOp31
 70
     1
102
RTVSPropertyOp32
 70
     1
  0
XRECORD
  5
5F4
102
{ACAD_REACTORS
330
5F3
102
}
330
5F3
100
AcDbXrecord
280
     1
102
RTVSPropertyOp0
 70
     1
102
RTVSPropertyOp1
 70
     1
102
RTVSPropertyOp2
 70
     1
102
RTVSPropertyOp3
 70
     1
102
RTVSPropertyOp4
 70
     1
102
RTVSPropertyOp5
 70
     1
102
RTVSPropertyOp6
 70
     1
102
RTVSPropertyOp7
 70
     1
102
RTVSPropertyOp8
 70
     1
102
RTVSPropertyOp9
 70
     1
102
RTVSPropertyOp10
 70
     1
102
RTVSPropertyOp11
 70
     1
102
RTVSPropertyOp12
 70
     1
102
RTVSPropertyOp13
 70
     1
102
RTVSPropertyOp14
 70
     1
102
RTVSPropertyOp15
 70
     1
102
RTVSPropertyOp16
 70
     1
102
RTVSPropertyOp17
 70
     1
102
RTVSPropertyOp18
 70
     1
102
RTVSPropertyOp19
 70
     1
102
RTVSPropertyOp20
 70
     1
102
RTVSPropertyOp21
 70
     1
102
RTVSPropertyOp22
 70
     1
102
RTVSPropertyOp23
 70
     1
102
RTVSPropertyOp24
 70
     1
102
RTVSPropertyOp25
 70
     1
102
RTVSPropertyOp26
 70
     1
102
RTVSPropertyOp27
 70
     1
102
RTVSPropertyOp28
 70
     1
102
RTVSPropertyOp29
 70
     1
102
RTVSPropertyOp30
 70
     1
102
RTVSPropertyOp31
 70
     1
102
RTVSPropertyOp32
 70
     1
  0
XRECORD
  5
608
102
{ACAD_REACTORS
330
607
102
}
330
607
100
AcDbXrecord
280
     1
102
RTVSPropertyOp0
 70
     1
102
RTVSPropertyOp1
 70
     1
102
RTVSPropertyOp2
 70
     1
102
RTVSPropertyOp3
 70
     1
102
RTVSPropertyOp4
 70
     1
102
RTVSPropertyOp5
 70
     1
102
RTVSPropertyOp6
 70
     1
102
RTVSPropertyOp7
 70
     1
102
RTVSPropertyOp8
 70
     1
102
RTVSPropertyOp9
 70
     1
102
RTVSPropertyOp10
 70
     1
102
RTVSPropertyOp11
 70
     1
102
RTVSPropertyOp12
 70
     1
102
RTVSPropertyOp13
 70
     1
102
RTVSPropertyOp14
 70
     1
102
RTVSPropertyOp15
 70
     1
102
RTVSPropertyOp16
 70
     1
102
RTVSPropertyOp17
 70
     1
102
RTVSPropertyOp18
 70
     1
102
RTVSPropertyOp19
 70
     1
102
RTVSPropertyOp20
 70
     1
102
RTVSPropertyOp21
 70
     1
102
RTVSPropertyOp22
 70
     1
102
RTVSPropertyOp23
 70
     1
102
RTVSPropertyOp24
 70
     1
102
RTVSPropertyOp25
 70
     1
102
RTVSPropertyOp26
 70
     1
102
RTVSPropertyOp27
 70
     1
102
RTVSPropertyOp28
 70
     1
102
RTVSPropertyOp29
 70
     1
102
RTVSPropertyOp30
 70
     1
102
RTVSPropertyOp31
 70
     1
102
RTVSPropertyOp32
 70
     1
  0
XRECORD
  5
5FE
102
{ACAD_REACTORS
330
5FD
102
}
330
5FD
100
AcDbXrecord
280
     1
102
RTVSPropertyOp0
 70
     1
102
RTVSPropertyOp1
 70
     1
102
RTVSPropertyOp2
 70
     1
102
RTVSPropertyOp3
 70
     1
102
RTVSPropertyOp4
 70
     1
102
RTVSPropertyOp5
 70
     1
102
RTVSPropertyOp6
 70
     1
102
RTVSPropertyOp7
 70
     1
102
RTVSPropertyOp8
 70
     1
102
RTVSPropertyOp9
 70
     1
102
RTVSPropertyOp10
 70
     1
102
RTVSPropertyOp11
 70
     1
102
RTVSPropertyOp12
 70
     1
102
RTVSPropertyOp13
 70
     1
102
RTVSPropertyOp14
 70
     1
102
RTVSPropertyOp15
 70
     1
102
RTVSPropertyOp16
 70
     1
102
RTVSPropertyOp17
 70
     1
102
RTVSPropertyOp18
 70
     1
102
RTVSPropertyOp19
 70
     1
102
RTVSPropertyOp20
 70
     1
102
RTVSPropertyOp21
 70
     1
102
RTVSPropertyOp22
 70
     1
102
RTVSPropertyOp23
 70
     1
102
RTVSPropertyOp24
 70
     1
102
RTVSPropertyOp25
 70
     1
102
RTVSPropertyOp26
 70
     1
102
RTVSPropertyOp27
 70
     1
102
RTVSPropertyOp28
 70
     1
102
RTVSPropertyOp29
 70
     1
102
RTVSPropertyOp30
 70
     1
102
RTVSPropertyOp31
 70
     1
102
RTVSPropertyOp32
 70
     1
  0
XRECORD
  5
606
102
{ACAD_REACTORS
330
605
102
}
330
605
100
AcDbXrecord
280
     1
102
RTVSPropertyOp0
 70
     1
102
RTVSPropertyOp1
 70
     1
102
RTVSPropertyOp2
 70
     1
102
RTVSPropertyOp3
 70
     1
102
RTVSPropertyOp4
 70
     1
102
RTVSPropertyOp5
 70
     1
102
RTVSPropertyOp6
 70
     1
102
RTVSPropertyOp7
 70
     1
102
RTVSPropertyOp8
 70
     1
102
RTVSPropertyOp9
 70
     1
102
RTVSPropertyOp10
 70
     1
102
RTVSPropertyOp11
 70
     1
102
RTVSPropertyOp12
 70
     1
102
RTVSPropertyOp13
 70
     1
102
RTVSPropertyOp14
 70
     1
102
RTVSPropertyOp15
 70
     1
102
RTVSPropertyOp16
 70
     1
102
RTVSPropertyOp17
 70
     1
102
RTVSPropertyOp18
 70
     1
102
RTVSPropertyOp19
 70
     1
102
RTVSPropertyOp20
 70
     1
102
RTVSPropertyOp21
 70
     1
102
RTVSPropertyOp22
 70
     1
102
RTVSPropertyOp23
 70
     1
102
RTVSPropertyOp24
 70
     1
102
RTVSPropertyOp25
 70
     1
102
RTVSPropertyOp26
 70
     1
102
RTVSPropertyOp27
 70
     1
102
RTVSPropertyOp28
 70
     1
102
RTVSPropertyOp29
 70
     1
102
RTVSPropertyOp30
 70
     1
102
RTVSPropertyOp31
 70
     1
102
RTVSPropertyOp32
 70
     1
  0
ENDSEC
  0
EOF
